<?xml version="1.0" standalone="no"?>
<!DOCTYPE svg PUBLIC "-//W3C//DTD SVG 1.1//EN" "http://www.w3.org/Graphics/SVG/1.1/DTD/svg11.dtd" >
<svg>
<metadata>
Created by FontForge 20120731 at Thu Sep 29 19:05:51 2016
 By www-data
Copyright (c) 2013-2016, Sorkin Type Co (www.sorkintype.com) with Reserved Font Name 'Merriweather'
</metadata>
<defs>
<font id="MerriweatherSans-Regular" horiz-adv-x="1217" >
  <font-face 
    font-family="Merriweather Sans"
    font-weight="400"
    font-stretch="normal"
    units-per-em="2048"
    panose-1="0 0 5 0 0 0 0 0 0 0"
    ascent="1638"
    descent="-410"
    x-height="1140"
    cap-height="1522"
    bbox="-318 -560 2725 2070"
    underline-thickness="137"
    underline-position="-143"
    unicode-range="U+000D-FB02"
  />
<missing-glyph horiz-adv-x="1872" 
d="M1644 1416v-1416h-1416v1416h1416zM1295 219l122 122l-363 368l363 358l-128 124l-352 -366l-357 368l-123 -125l359 -363l-358 -342l128 -144l347 368z" />
    <glyph glyph-name="f_f" unicode="ff" horiz-adv-x="1622" 
d="M75 974v122l173 44v99q0 160 61.5 259t155.5 141.5t196 42.5q42 0 82 -7t60 -15v-174q-32 11 -69.5 15.5t-102.5 4.5q-74 0 -118.5 -56t-44.5 -161v-149h282v-166h-282v-974h-220v974h-173zM886 974v122l173 44v99q0 160 61.5 259t155.5 141.5t196 42.5q42 0 82 -7
t60 -15v-174q-32 11 -69.5 15.5t-102.5 4.5q-74 0 -118.5 -56t-44.5 -161v-149h282v-166h-282v-974h-220v974h-173z" />
    <glyph glyph-name="f_f_i" unicode="ffi" horiz-adv-x="2228" 
d="M75 974v122l173 44v99q0 160 61.5 259t155.5 141.5t196 42.5q42 0 82 -7t60 -15v-174q-32 11 -69.5 15.5t-102.5 4.5q-74 0 -118.5 -56t-44.5 -161v-149h282v-166h-282v-974h-220v974h-173zM886 974v122l173 44v99q0 160 61.5 259t155.5 141.5t196 42.5q42 0 82 -7
t60 -15v-174q-32 11 -69.5 15.5t-102.5 4.5q-74 0 -118.5 -56t-44.5 -161v-149h282v-166h-282v-974h-220v974h-173zM2035 1138v-1138h-220v1138h220zM1796.5 1560q23.5 36 61.5 57t77 21q68 0 104.5 -38t36.5 -97q0 -44 -23 -80t-60 -56t-79 -20q-38 0 -70 16.5t-51.5 47.5
t-19.5 71q0 42 23.5 78z" />
    <glyph glyph-name="f_f_l" unicode="ffl" horiz-adv-x="2235" 
d="M75 974v122l173 44v99q0 160 61.5 259t155.5 141.5t196 42.5q42 0 82 -7t60 -15v-174q-32 11 -69.5 15.5t-102.5 4.5q-74 0 -118.5 -56t-44.5 -161v-149h282v-166h-282v-974h-220v974h-173zM886 974v122l173 44v99q0 160 61.5 259t155.5 141.5t196 42.5q42 0 82 -7
t60 -15v-174q-32 11 -69.5 15.5t-102.5 4.5q-74 0 -118.5 -56t-44.5 -161v-149h282v-166h-282v-974h-220v974h-173zM2039 1664v-1664h-220v1664h220z" />
    <glyph glyph-name="fi" unicode="fi" horiz-adv-x="1417" 
d="M75 974v122l173 44v99q0 160 61.5 259t155.5 141.5t196 42.5q42 0 82 -7t60 -15v-174q-32 11 -69.5 15.5t-102.5 4.5q-74 0 -118.5 -56t-44.5 -161v-149h282v-166h-282v-974h-220v974h-173zM1224 1138v-1138h-220v1138h220zM985.5 1560q23.5 36 61.5 57t77 21
q68 0 104.5 -38t36.5 -97q0 -44 -23 -80t-60 -56t-79 -20q-38 0 -70 16.5t-51.5 47.5t-19.5 71q0 42 23.5 78z" />
    <glyph glyph-name="fl" unicode="fl" horiz-adv-x="1424" 
d="M75 974v122l173 44v99q0 160 61.5 259t155.5 141.5t196 42.5q42 0 82 -7t60 -15v-174q-32 11 -69.5 15.5t-102.5 4.5q-74 0 -118.5 -56t-44.5 -161v-149h282v-166h-282v-974h-220v974h-173zM1228 1664v-1664h-220v1664h220z" />
    <glyph glyph-name=".notdef" horiz-adv-x="1872" 
d="M1644 1416v-1416h-1416v1416h1416zM1295 219l122 122l-363 368l363 358l-128 124l-352 -366l-357 368l-123 -125l359 -363l-358 -342l128 -144l347 368z" />
    <glyph glyph-name="NULL" horiz-adv-x="0" 
 />
    <glyph glyph-name="NULL" horiz-adv-x="0" 
 />
    <glyph glyph-name="nonmarkingreturn" unicode="&#xd;" horiz-adv-x="0" 
 />
    <glyph glyph-name="space" unicode=" " horiz-adv-x="655" 
 />
    <glyph glyph-name="A" unicode="A" horiz-adv-x="1407" 
d="M1016 385h-623l-136 -385h-236l582 1538h215l568 -1538h-241zM960 551l-205 609l-43 142l-44 -142l-216 -609h508z" />
    <glyph glyph-name="Aacute" unicode="&#xc1;" horiz-adv-x="1407" 
d="M1016 385h-623l-136 -385h-236l582 1538h215l568 -1538h-241zM960 551l-205 609l-43 142l-44 -142l-216 -609h508zM772 1843.5q142 128.5 145 136.5l146 -133q-74 -76 -194 -160.5t-202 -113.5l-93 92q56 50 198 178.5z" />
    <glyph glyph-name="Abreve" unicode="&#x102;" horiz-adv-x="1407" 
d="M1016 385h-623l-136 -385h-236l582 1538h215l568 -1538h-241zM960 551l-205 609l-43 142l-44 -142l-216 -609h508zM513 1970q1 -33 10.5 -66.5t51.5 -66t127 -32.5q121 0 156 55t37 110h149q1 -10 1 -30q0 -84 -43 -154.5t-121 -112t-179 -41.5q-106 0 -183.5 41
t-118.5 111.5t-41 155.5q0 20 1 30h153z" />
    <glyph glyph-name="uni01CD" unicode="&#x1cd;" horiz-adv-x="1407" 
d="M1016 385h-623l-136 -385h-236l582 1538h215l568 -1538h-241zM960 551l-205 609l-43 142l-44 -142l-216 -609h508zM603 1990h197l262 -298l-144 -60l-216 202l-221 -202l-137 57z" />
    <glyph glyph-name="Acircumflex" unicode="&#xc2;" horiz-adv-x="1407" 
d="M1016 385h-623l-136 -385h-236l582 1538h215l568 -1538h-241zM960 551l-205 609l-43 142l-44 -142l-216 -609h508zM603 1990h197l262 -298l-144 -60l-216 202l-221 -202l-137 57z" />
    <glyph glyph-name="Adieresis" unicode="&#xc4;" horiz-adv-x="1407" 
d="M1016 385h-623l-136 -385h-236l582 1538h215l568 -1538h-241zM960 551l-205 609l-43 142l-44 -142l-216 -609h508zM328.5 1878.5q22.5 35.5 59.5 56t77 20.5q68 0 103 -37.5t35 -96.5q0 -45 -22 -80t-59 -54.5t-79 -19.5q-57 0 -97 36.5t-40 96.5q0 43 22.5 78.5z
M825 1878.5q23 35.5 60 56t76 20.5q68 0 103 -37.5t35 -96.5q0 -45 -22 -80t-59 -54.5t-79 -19.5q-57 0 -97 36.5t-40 96.5q0 43 23 78.5z" />
    <glyph glyph-name="Agrave" unicode="&#xc0;" horiz-adv-x="1407" 
d="M1016 385h-623l-136 -385h-236l582 1538h215l568 -1538h-241zM960 551l-205 609l-43 142l-44 -142l-216 -609h508zM612 1639q-80 49 -156.5 107.5t-113.5 100.5l146 133q3 -8 145 -136.5t198 -178.5l-92 -92q-47 17 -127 66z" />
    <glyph glyph-name="Amacron" unicode="&#x100;" horiz-adv-x="1407" 
d="M1016 385h-623l-136 -385h-236l582 1538h215l568 -1538h-241zM960 551l-205 609l-43 142l-44 -142l-216 -609h508zM978 1891v-162h-547v162h547z" />
    <glyph glyph-name="Aogonek" unicode="&#x104;" horiz-adv-x="1407" 
d="M1394 -335v-118q-40 -30 -104 -44.5t-133 -14.5q-109 0 -177.5 56t-68.5 157q0 87 79.5 165.5t186.5 133.5h-32l-129 385h-623l-136 -385h-236l582 1538h215l568 -1538h-38q-94 -52 -157.5 -121.5t-63.5 -134.5q0 -62 33.5 -85t94.5 -23q64 0 139 29zM960 551l-205 609
l-43 142l-44 -142l-216 -609h508z" />
    <glyph glyph-name="Aring" unicode="&#xc5;" horiz-adv-x="1407" 
d="M1016 385h-623l-136 -385h-236l550 1453q-89 27 -139.5 92.5t-50.5 157.5t45.5 152t118 87.5t156.5 27.5q148 0 234.5 -68t86.5 -193q0 -96 -47 -159t-128 -91l539 -1459h-241zM582 1814q-45 -32 -45 -106q0 -68 45 -107.5t121 -39.5q77 0 121 34.5t44 110.5
q0 68 -48.5 104t-124.5 36q-68 0 -113 -32zM960 551l-205 609l-43 142l-44 -142l-216 -609h508z" />
    <glyph glyph-name="Atilde" unicode="&#xc3;" horiz-adv-x="1407" 
d="M1016 385h-623l-136 -385h-236l582 1538h215l568 -1538h-241zM960 551l-205 609l-43 142l-44 -142l-216 -609h508zM355 1871q46 45 103 70t110 25q58 0 96 -21t83 -60q35 -30 58.5 -44t53.5 -14q49 0 92 28t83 71l86 -71q-23 -55 -69 -99.5t-102.5 -69.5t-109.5 -25
q-58 0 -96.5 21.5t-82.5 61.5q-34 31 -58.5 46t-55.5 15q-82 0 -175 -102l-85 68q23 55 69 100z" />
    <glyph glyph-name="AE" unicode="&#xc6;" horiz-adv-x="1860" 
d="M1786 175v-175h-949v385h-481l-183 -385h-246l725 1522h1061v-172h-653v-480h479v-172h-479v-523h726zM837 551v825h-10l-392 -825h402z" />
    <glyph glyph-name="AEacute" unicode="&#x1fc;" horiz-adv-x="1860" 
d="M1090 1843.5q142 128.5 145 136.5l146 -133q-74 -76 -194 -160.5t-202 -113.5l-93 92q56 50 198 178.5zM1786 175v-175h-949v385h-481l-183 -385h-246l725 1522h1061v-172h-653v-480h479v-172h-479v-523h726zM837 551v825h-10l-392 -825h402z" />
    <glyph glyph-name="B" unicode="B" horiz-adv-x="1339" 
d="M298 1522q41 0 139 6q137 9 211 9q249 0 372.5 -95.5t123.5 -264.5q0 -74 -24.5 -147.5t-76 -129.5t-130.5 -77q91 -4 167.5 -56t121.5 -135.5t45 -175.5q0 -224 -140 -347t-475 -123q-128 0 -327 14h-111v1523zM812.5 894q53.5 32 84.5 96t31 155q0 118 -82 176.5
t-239 58.5q-46 0 -109.5 -3t-81.5 -10v-500q43 -7 127 -7l82 1q24 1 68 1q66 0 119.5 32zM929 212.5q92 64.5 92 217.5q0 142 -85.5 207.5t-267.5 65.5l-114 1q-96 0 -138 -6v-527q23 -14 90 -18.5t152 -4.5q179 0 271 64.5z" />
    <glyph glyph-name="uni1E02" unicode="&#x1e02;" horiz-adv-x="1339" 
d="M535 1879.5q23 35.5 60.5 56t76.5 20.5q68 0 103.5 -37t35.5 -96q0 -45 -22.5 -80t-59 -54.5t-78.5 -19.5q-58 0 -98.5 36.5t-40.5 96.5q0 42 23 77.5zM298 1522q41 0 139 6q137 9 211 9q249 0 372.5 -95.5t123.5 -264.5q0 -74 -24.5 -147.5t-76 -129.5t-130.5 -77
q91 -4 167.5 -56t121.5 -135.5t45 -175.5q0 -224 -140 -347t-475 -123q-128 0 -327 14h-111v1523zM812.5 894q53.5 32 84.5 96t31 155q0 118 -82 176.5t-239 58.5q-46 0 -109.5 -3t-81.5 -10v-500q43 -7 127 -7l82 1q24 1 68 1q66 0 119.5 32zM929 212.5q92 64.5 92 217.5
q0 142 -85.5 207.5t-267.5 65.5l-114 1q-96 0 -138 -6v-527q23 -14 90 -18.5t152 -4.5q179 0 271 64.5z" />
    <glyph glyph-name="C" unicode="C" horiz-adv-x="1313" 
d="M1012 1524q85 -14 156 -35l30 -8l-32 -198q-37 19 -70 32.5t-106 27.5t-176 14q-153 0 -265.5 -72t-172.5 -205t-60 -312q0 -178 60 -316t172.5 -215t264.5 -77q75 0 152 13t136 34.5t86 45.5l1 -189q-65 -26 -111.5 -41.5t-116 -27t-156.5 -11.5q-213 0 -373.5 96
t-248 270t-87.5 403q0 243 96 421t257 271t351 93q128 0 213 -14z" />
    <glyph glyph-name="Cacute" unicode="&#x106;" horiz-adv-x="1313" 
d="M1012 1524q85 -14 156 -35l30 -8l-32 -198q-37 19 -70 32.5t-106 27.5t-176 14q-153 0 -265.5 -72t-172.5 -205t-60 -312q0 -178 60 -316t172.5 -215t264.5 -77q75 0 152 13t136 34.5t86 45.5l1 -189q-65 -26 -111.5 -41.5t-116 -27t-156.5 -11.5q-213 0 -373.5 96
t-248 270t-87.5 403q0 243 96 421t257 271t351 93q128 0 213 -14zM865 1843.5q142 128.5 145 136.5l146 -133q-74 -76 -194 -160.5t-202 -113.5l-93 92q56 50 198 178.5z" />
    <glyph glyph-name="Ccaron" unicode="&#x10c;" horiz-adv-x="1313" 
d="M1012 1524q85 -14 156 -35l30 -8l-32 -198q-37 19 -70 32.5t-106 27.5t-176 14q-153 0 -265.5 -72t-172.5 -205t-60 -312q0 -178 60 -316t172.5 -215t264.5 -77q75 0 152 13t136 34.5t86 45.5l1 -189q-65 -26 -111.5 -41.5t-116 -27t-156.5 -11.5q-213 0 -373.5 96
t-248 270t-87.5 403q0 243 96 421t257 271t351 93q128 0 213 -14zM580 1990l216 -174l221 174l120 -57l-242 -263h-197l-246 260z" />
    <glyph glyph-name="Ccedilla" unicode="&#xc7;" horiz-adv-x="1313" 
d="M1188 64q-62 -24 -101 -37.5t-97.5 -25.5t-129.5 -16q30 -63 30 -165q0 -15 -2 -49q-10 -119 -77.5 -177t-162.5 -58q-42 0 -86 8t-61 20l15 142q22 -14 82 -14q53 0 87.5 36.5t39.5 113.5q5 32 5 69q0 39 -9 77q-190 18 -331.5 118t-218 266.5t-76.5 380.5q0 243 96 421
t257 271t351 93q128 0 213 -14t156 -35l30 -8l-32 -198q-37 19 -70 32.5t-106 27.5t-176 14q-153 0 -265.5 -72t-172.5 -205t-60 -312q0 -178 60 -316t172.5 -215t264.5 -77q75 0 152 13t136 34.5t86 45.5z" />
    <glyph glyph-name="Ccircumflex" unicode="&#x108;" horiz-adv-x="1313" 
d="M1012 1524q85 -14 156 -35l30 -8l-32 -198q-37 19 -70 32.5t-106 27.5t-176 14q-153 0 -265.5 -72t-172.5 -205t-60 -312q0 -178 60 -316t172.5 -215t264.5 -77q75 0 152 13t136 34.5t86 45.5l1 -189q-65 -26 -111.5 -41.5t-116 -27t-156.5 -11.5q-213 0 -373.5 96
t-248 270t-87.5 403q0 243 96 421t257 271t351 93q128 0 213 -14zM696 1990h197l262 -298l-144 -60l-216 202l-221 -202l-137 57z" />
    <glyph glyph-name="Cdotaccent" unicode="&#x10a;" horiz-adv-x="1313" 
d="M670 1879.5q23 35.5 60.5 56t76.5 20.5q68 0 103.5 -37t35.5 -96q0 -45 -22.5 -80t-59 -54.5t-78.5 -19.5q-58 0 -98.5 36.5t-40.5 96.5q0 42 23 77.5zM1012 1524q85 -14 156 -35l30 -8l-32 -198q-37 19 -70 32.5t-106 27.5t-176 14q-153 0 -265.5 -72t-172.5 -205
t-60 -312q0 -178 60 -316t172.5 -215t264.5 -77q75 0 152 13t136 34.5t86 45.5l1 -189q-65 -26 -111.5 -41.5t-116 -27t-156.5 -11.5q-213 0 -373.5 96t-248 270t-87.5 403q0 243 96 421t257 271t351 93q128 0 213 -14z" />
    <glyph glyph-name="D" unicode="D" horiz-adv-x="1472" 
d="M306 1522q57 0 157 7q14 1 79.5 5t123.5 4q361 0 541.5 -190t180.5 -544q0 -254 -88 -438.5t-252 -283t-387 -98.5q-46 0 -176 8q-144 8 -206 8h-85v1522h112zM1027.5 305.5q128.5 151.5 128.5 465.5q0 222 -60 355t-179 192t-303 59q-118 0 -196 -16v-1193
q47 -11 117.5 -15.5t141.5 -3.5q222 5 350.5 156.5z" />
    <glyph glyph-name="uni01F1" unicode="&#x1f1;" horiz-adv-x="2766" 
d="M306 1522q57 0 157 7q14 1 79.5 5t123.5 4q361 0 541.5 -190t180.5 -544q0 -254 -88 -438.5t-252 -283t-387 -98.5q-46 0 -176 8q-144 8 -206 8h-85v1522h112zM1027.5 305.5q128.5 151.5 128.5 465.5q0 222 -60 355t-179 192t-303 59q-118 0 -196 -16v-1193
q47 -11 117.5 -15.5t141.5 -3.5q222 5 350.5 156.5zM2338 1273l58 71h-750v178h996l46 -81l-760 -1181l-74 -85h775v-175h-1023l-45 84z" />
    <glyph glyph-name="uni01C4" unicode="&#x1c4;" horiz-adv-x="2766" 
d="M306 1522q57 0 157 7q14 1 79.5 5t123.5 4q361 0 541.5 -190t180.5 -544q0 -254 -88 -438.5t-252 -283t-387 -98.5q-46 0 -176 8q-144 8 -206 8h-85v1522h112zM1027.5 305.5q128.5 151.5 128.5 465.5q0 222 -60 355t-179 192t-303 59q-118 0 -196 -16v-1193
q47 -11 117.5 -15.5t141.5 -3.5q222 5 350.5 156.5zM2338 1273l58 71h-750v178h996l46 -81l-760 -1181l-74 -85h775v-175h-1023l-45 84zM1936 1990l216 -174l221 174l120 -57l-242 -263h-197l-246 260z" />
    <glyph glyph-name="Eth" unicode="&#xd0;" horiz-adv-x="1472" 
d="M1207.5 1348q180.5 -190 180.5 -544q0 -254 -88 -438.5t-252 -283t-387 -98.5q-46 0 -176 8q-144 8 -206 8h-85v720h-128v149h128v653h112q57 0 157 7q14 1 79.5 5t123.5 4q361 0 541.5 -190zM1027.5 305.5q128.5 151.5 128.5 465.5q0 222 -60 355t-179 192t-303 59
q-118 0 -196 -16v-492h394v-149h-394v-552q47 -11 117.5 -15.5t141.5 -3.5q222 5 350.5 156.5z" />
    <glyph glyph-name="Dcaron" unicode="&#x10e;" horiz-adv-x="1472" 
d="M517 1990l216 -174l221 174l120 -57l-242 -263h-197l-246 260zM306 1522q57 0 157 7q14 1 79.5 5t123.5 4q361 0 541.5 -190t180.5 -544q0 -254 -88 -438.5t-252 -283t-387 -98.5q-46 0 -176 8q-144 8 -206 8h-85v1522h112zM1027.5 305.5q128.5 151.5 128.5 465.5
q0 222 -60 355t-179 192t-303 59q-118 0 -196 -16v-1193q47 -11 117.5 -15.5t141.5 -3.5q222 5 350.5 156.5z" />
    <glyph glyph-name="Dcroat" unicode="&#x110;" horiz-adv-x="1472" 
d="M1207.5 1348q180.5 -190 180.5 -544q0 -254 -88 -438.5t-252 -283t-387 -98.5q-46 0 -176 8q-144 8 -206 8h-85v720h-128v149h128v653h112q57 0 157 7q14 1 79.5 5t123.5 4q361 0 541.5 -190zM1027.5 305.5q128.5 151.5 128.5 465.5q0 222 -60 355t-179 192t-303 59
q-118 0 -196 -16v-492h394v-149h-394v-552q47 -11 117.5 -15.5t141.5 -3.5q222 5 350.5 156.5z" />
    <glyph glyph-name="uni1E0A" unicode="&#x1e0a;" horiz-adv-x="1472" 
d="M604 1879.5q23 35.5 60.5 56t76.5 20.5q68 0 103.5 -37t35.5 -96q0 -45 -22.5 -80t-59 -54.5t-78.5 -19.5q-58 0 -98.5 36.5t-40.5 96.5q0 42 23 77.5zM306 1522q57 0 157 7q14 1 79.5 5t123.5 4q361 0 541.5 -190t180.5 -544q0 -254 -88 -438.5t-252 -283t-387 -98.5
q-46 0 -176 8q-144 8 -206 8h-85v1522h112zM1027.5 305.5q128.5 151.5 128.5 465.5q0 222 -60 355t-179 192t-303 59q-118 0 -196 -16v-1193q47 -11 117.5 -15.5t141.5 -3.5q222 5 350.5 156.5z" />
    <glyph glyph-name="uni01F2" unicode="&#x1f2;" horiz-adv-x="2533" 
d="M306 1522q57 0 157 7q14 1 79.5 5t123.5 4q361 0 541.5 -190t180.5 -544q0 -254 -88 -438.5t-252 -283t-387 -98.5q-46 0 -176 8q-144 8 -206 8h-85v1522h112zM1027.5 305.5q128.5 151.5 128.5 465.5q0 222 -60 355t-179 192t-303 59q-118 0 -196 -16v-1193
q47 -11 117.5 -15.5t141.5 -3.5q222 5 350.5 156.5zM2164 972h-550v168h812l35 -95l-550 -801l-59 -84h589v-160h-845l-42 82z" />
    <glyph glyph-name="uni01C5" unicode="&#x1c5;" horiz-adv-x="2533" 
d="M306 1522q57 0 157 7q14 1 79.5 5t123.5 4q361 0 541.5 -190t180.5 -544q0 -254 -88 -438.5t-252 -283t-387 -98.5q-46 0 -176 8q-144 8 -206 8h-85v1522h112zM1027.5 305.5q128.5 151.5 128.5 465.5q0 222 -60 355t-179 192t-303 59q-118 0 -196 -16v-1193
q47 -11 117.5 -15.5t141.5 -3.5q222 5 350.5 156.5zM2164 972h-550v168h812l35 -95l-550 -801l-59 -84h589v-160h-845l-42 82zM2010 1487l232 222l135 -56l-268 -332h-198l-276 333l126 56z" />
    <glyph glyph-name="E" unicode="E" 
d="M1070 1522v-172h-653v-480h479v-172h-479v-523h726v-175h-949v1522h876z" />
    <glyph glyph-name="Eacute" unicode="&#xc9;" 
d="M750 1843.5q142 128.5 145 136.5l146 -133q-74 -76 -194 -160.5t-202 -113.5l-93 92q56 50 198 178.5zM1070 1522v-172h-653v-480h479v-172h-479v-523h726v-175h-949v1522h876z" />
    <glyph glyph-name="Ebreve" unicode="&#x114;" 
d="M491 1970q1 -33 10.5 -66.5t51.5 -66t127 -32.5q121 0 156 55t37 110h149q1 -10 1 -30q0 -84 -43 -154.5t-121 -112t-179 -41.5q-106 0 -183.5 41t-118.5 111.5t-41 155.5q0 20 1 30h153zM1070 1522v-172h-653v-480h479v-172h-479v-523h726v-175h-949v1522h876z" />
    <glyph glyph-name="Ecaron" unicode="&#x11a;" 
d="M465 1990l216 -174l221 174l120 -57l-242 -263h-197l-246 260zM1070 1522v-172h-653v-480h479v-172h-479v-523h726v-175h-949v1522h876z" />
    <glyph glyph-name="Ecircumflex" unicode="&#xca;" 
d="M1070 1522v-172h-653v-480h479v-172h-479v-523h726v-175h-949v1522h876zM581 1990h197l262 -298l-144 -60l-216 202l-221 -202l-137 57z" />
    <glyph glyph-name="Edieresis" unicode="&#xcb;" 
d="M306.5 1878.5q22.5 35.5 59.5 56t77 20.5q68 0 103 -37.5t35 -96.5q0 -45 -22 -80t-59 -54.5t-79 -19.5q-57 0 -97 36.5t-40 96.5q0 43 22.5 78.5zM803 1878.5q23 35.5 60 56t76 20.5q68 0 103 -37.5t35 -96.5q0 -45 -22 -80t-59 -54.5t-79 -19.5q-57 0 -97 36.5
t-40 96.5q0 43 23 78.5zM1070 1522v-172h-653v-480h479v-172h-479v-523h726v-175h-949v1522h876z" />
    <glyph glyph-name="Edotaccent" unicode="&#x116;" 
d="M555 1879.5q23 35.5 60.5 56t76.5 20.5q68 0 103.5 -37t35.5 -96q0 -45 -22.5 -80t-59 -54.5t-78.5 -19.5q-58 0 -98.5 36.5t-40.5 96.5q0 42 23 77.5zM1070 1522v-172h-653v-480h479v-172h-479v-523h726v-175h-949v1522h876z" />
    <glyph glyph-name="Egrave" unicode="&#xc8;" 
d="M590 1639q-80 49 -156.5 107.5t-113.5 100.5l146 133q3 -8 145 -136.5t198 -178.5l-92 -92q-47 17 -127 66zM1070 1522v-172h-653v-480h479v-172h-479v-523h726v-175h-949v1522h876z" />
    <glyph glyph-name="Emacron" unicode="&#x112;" 
d="M956 1891v-162h-547v162h547zM1070 1522v-172h-653v-480h479v-172h-479v-523h726v-175h-949v1522h876z" />
    <glyph glyph-name="Eogonek" unicode="&#x118;" 
d="M936.5 -121.5q-63.5 -69.5 -63.5 -134.5q0 -62 33.5 -85t94.5 -23q64 0 139 29v-118q-40 -30 -104 -44.5t-133 -14.5q-111 0 -178.5 51.5t-67.5 151.5q0 62 35 121.5t95 108t134 79.5h-727v1522h876v-172h-653v-480h479v-172h-479v-523h726v-175h-49
q-94 -52 -157.5 -121.5z" />
    <glyph glyph-name="F" unicode="F" horiz-adv-x="1083" 
d="M1068 1522v-172h-650v-499h487v-172h-487v-679h-224v1522h874z" />
    <glyph glyph-name="uni1E1E" unicode="&#x1e1e;" horiz-adv-x="1083" 
d="M550 1879.5q23 35.5 60.5 56t76.5 20.5q68 0 103.5 -37t35.5 -96q0 -45 -22.5 -80t-59 -54.5t-78.5 -19.5q-58 0 -98.5 36.5t-40.5 96.5q0 42 23 77.5zM1068 1522v-172h-650v-499h487v-172h-487v-679h-224v1522h874z" />
    <glyph glyph-name="G" unicode="G" horiz-adv-x="1433" 
d="M1317 761v-667q-20 -1 -42.5 -8t-59.5 -22q-93 -36 -184 -58t-227 -22q-220 0 -379 99t-242.5 273.5t-83.5 396.5q0 253 92.5 430t252 266t360.5 89q115 0 184 -10t151 -30q58 -14 91 -20l-10 -200q-83 43 -179 64.5t-251 21.5q-133 0 -237.5 -70t-163.5 -202t-59 -312
q0 -181 52 -322t158 -222.5t261 -81.5q89 0 174.5 14.5t126.5 42.5v377l-277 13v160h492z" />
    <glyph glyph-name="uni01F4" unicode="&#x1f4;" horiz-adv-x="1433" 
d="M1317 761v-667q-20 -1 -42.5 -8t-59.5 -22q-93 -36 -184 -58t-227 -22q-220 0 -379 99t-242.5 273.5t-83.5 396.5q0 253 92.5 430t252 266t360.5 89q115 0 184 -10t151 -30q58 -14 91 -20l-10 -200q-83 43 -179 64.5t-251 21.5q-133 0 -237.5 -70t-163.5 -202t-59 -312
q0 -181 52 -322t158 -222.5t261 -81.5q89 0 174.5 14.5t126.5 42.5v377l-277 13v160h492zM877 1843.5q142 128.5 145 136.5l146 -133q-74 -76 -194 -160.5t-202 -113.5l-93 92q56 50 198 178.5z" />
    <glyph glyph-name="Gbreve" unicode="&#x11e;" horiz-adv-x="1433" 
d="M618 1970q1 -33 10.5 -66.5t51.5 -66t127 -32.5q121 0 156 55t37 110h149q1 -10 1 -30q0 -84 -43 -154.5t-121 -112t-179 -41.5q-106 0 -183.5 41t-118.5 111.5t-41 155.5q0 20 1 30h153zM1317 761v-667q-20 -1 -42.5 -8t-59.5 -22q-93 -36 -184 -58t-227 -22
q-220 0 -379 99t-242.5 273.5t-83.5 396.5q0 253 92.5 430t252 266t360.5 89q115 0 184 -10t151 -30q58 -14 91 -20l-10 -200q-83 43 -179 64.5t-251 21.5q-133 0 -237.5 -70t-163.5 -202t-59 -312q0 -181 52 -322t158 -222.5t261 -81.5q89 0 174.5 14.5t126.5 42.5v377
l-277 13v160h492z" />
    <glyph glyph-name="Gcaron" unicode="&#x1e6;" horiz-adv-x="1433" 
d="M1317 761v-667q-20 -1 -42.5 -8t-59.5 -22q-93 -36 -184 -58t-227 -22q-220 0 -379 99t-242.5 273.5t-83.5 396.5q0 253 92.5 430t252 266t360.5 89q115 0 184 -10t151 -30q58 -14 91 -20l-10 -200q-83 43 -179 64.5t-251 21.5q-133 0 -237.5 -70t-163.5 -202t-59 -312
q0 -181 52 -322t158 -222.5t261 -81.5q89 0 174.5 14.5t126.5 42.5v377l-277 13v160h492zM592 1990l216 -174l221 174l120 -57l-242 -263h-197l-246 260z" />
    <glyph glyph-name="Gcircumflex" unicode="&#x11c;" horiz-adv-x="1433" 
d="M1317 761v-667q-20 -1 -42.5 -8t-59.5 -22q-93 -36 -184 -58t-227 -22q-220 0 -379 99t-242.5 273.5t-83.5 396.5q0 253 92.5 430t252 266t360.5 89q115 0 184 -10t151 -30q58 -14 91 -20l-10 -200q-83 43 -179 64.5t-251 21.5q-133 0 -237.5 -70t-163.5 -202t-59 -312
q0 -181 52 -322t158 -222.5t261 -81.5q89 0 174.5 14.5t126.5 42.5v377l-277 13v160h492zM708 1990h197l262 -298l-144 -60l-216 202l-221 -202l-137 57z" />
    <glyph glyph-name="Gcommaaccent" unicode="&#x122;" horiz-adv-x="1433" 
d="M717 -493q16 19 27.5 59t11.5 86q0 41 -19 79.5t-48 44.5v50l158 92q40 -19 68.5 -76t28.5 -136q0 -65 -24 -120.5t-59 -93t-69 -52.5l-75 41v26zM1317 761v-667q-20 -1 -42.5 -8t-59.5 -22q-93 -36 -184 -58t-227 -22q-220 0 -379 99t-242.5 273.5t-83.5 396.5
q0 253 92.5 430t252 266t360.5 89q115 0 184 -10t151 -30q58 -14 91 -20l-10 -200q-83 43 -179 64.5t-251 21.5q-133 0 -237.5 -70t-163.5 -202t-59 -312q0 -181 52 -322t158 -222.5t261 -81.5q89 0 174.5 14.5t126.5 42.5v377l-277 13v160h492z" />
    <glyph glyph-name="Gdotaccent" unicode="&#x120;" horiz-adv-x="1433" 
d="M682 1879.5q23 35.5 60.5 56t76.5 20.5q68 0 103.5 -37t35.5 -96q0 -45 -22.5 -80t-59 -54.5t-78.5 -19.5q-58 0 -98.5 36.5t-40.5 96.5q0 42 23 77.5zM1317 761v-667q-20 -1 -42.5 -8t-59.5 -22q-93 -36 -184 -58t-227 -22q-220 0 -379 99t-242.5 273.5t-83.5 396.5
q0 253 92.5 430t252 266t360.5 89q115 0 184 -10t151 -30q58 -14 91 -20l-10 -200q-83 43 -179 64.5t-251 21.5q-133 0 -237.5 -70t-163.5 -202t-59 -312q0 -181 52 -322t158 -222.5t261 -81.5q89 0 174.5 14.5t126.5 42.5v377l-277 13v160h492z" />
    <glyph glyph-name="uni1E20" unicode="&#x1e20;" horiz-adv-x="1433" 
d="M1317 761v-667q-20 -1 -42.5 -8t-59.5 -22q-93 -36 -184 -58t-227 -22q-220 0 -379 99t-242.5 273.5t-83.5 396.5q0 253 92.5 430t252 266t360.5 89q115 0 184 -10t151 -30q58 -14 91 -20l-10 -200q-83 43 -179 64.5t-251 21.5q-133 0 -237.5 -70t-163.5 -202t-59 -312
q0 -181 52 -322t158 -222.5t261 -81.5q89 0 174.5 14.5t126.5 42.5v377l-277 13v160h492zM1083 1891v-162h-547v162h547z" />
    <glyph glyph-name="H" unicode="H" horiz-adv-x="1552" 
d="M417 1522v-667h718v667h223v-1522h-223v683h-718v-683h-223v1522h223z" />
    <glyph glyph-name="Hbar" unicode="&#x126;" horiz-adv-x="1563" 
d="M1558 1065h-189v-1065h-223v674h-729v-674h-223v1065h-186v142h186v315h223v-315h729v315h223v-315h189v-142zM1146 1065h-729v-220h729v220z" />
    <glyph glyph-name="Hcircumflex" unicode="&#x124;" horiz-adv-x="1552" 
d="M417 1522v-667h718v667h223v-1522h-223v683h-718v-683h-223v1522h223zM677 1990h197l262 -298l-144 -60l-216 202l-221 -202l-137 57z" />
    <glyph glyph-name="I" unicode="I" horiz-adv-x="640" 
d="M433 1522v-1522h-226v1522h226z" />
    <glyph glyph-name="IJ" unicode="&#x132;" horiz-adv-x="1353" 
d="M433 1522v-1522h-226v1522h226zM769 -111.5q78 69.5 107 177.5q21 76 26.5 194.5t5.5 311.5v36v914h226v-909l1 -214q0 -99 -4 -174t-16 -139q-22 -122 -94.5 -212t-167.5 -141t-187 -65l-68 117q93 34 171 103.5z" />
    <glyph glyph-name="Iacute" unicode="&#xcd;" horiz-adv-x="640" 
d="M433 1522v-1522h-226v1522h226zM391 1843.5q142 128.5 145 136.5l146 -133q-74 -76 -194 -160.5t-202 -113.5l-93 92q56 50 198 178.5z" />
    <glyph glyph-name="Ibreve" unicode="&#x12c;" horiz-adv-x="640" 
d="M433 1522v-1522h-226v1522h226zM132 1970q1 -33 10.5 -66.5t51.5 -66t127 -32.5q121 0 156 55t37 110h149q1 -10 1 -30q0 -84 -43 -154.5t-121 -112t-179 -41.5q-106 0 -183.5 41t-118.5 111.5t-41 155.5q0 20 1 30h153z" />
    <glyph glyph-name="uni01CF" unicode="&#x1cf;" horiz-adv-x="640" 
d="M433 1522v-1522h-226v1522h226zM106 1990l216 -174l221 174l120 -57l-242 -263h-197l-246 260z" />
    <glyph glyph-name="Icircumflex" unicode="&#xce;" horiz-adv-x="640" 
d="M433 1522v-1522h-226v1522h226zM222 1990h197l262 -298l-144 -60l-216 202l-221 -202l-137 57z" />
    <glyph glyph-name="Idieresis" unicode="&#xcf;" horiz-adv-x="640" 
d="M433 1522v-1522h-226v1522h226zM-52.5 1878.5q22.5 35.5 59.5 56t77 20.5q68 0 103 -37.5t35 -96.5q0 -45 -22 -80t-59 -54.5t-79 -19.5q-57 0 -97 36.5t-40 96.5q0 43 22.5 78.5zM444 1878.5q23 35.5 60 56t76 20.5q68 0 103 -37.5t35 -96.5q0 -45 -22 -80t-59 -54.5
t-79 -19.5q-57 0 -97 36.5t-40 96.5q0 43 23 78.5z" />
    <glyph glyph-name="Idotaccent" unicode="&#x130;" horiz-adv-x="640" 
d="M433 1522v-1522h-226v1522h226zM196 1879.5q23 35.5 60.5 56t76.5 20.5q68 0 103.5 -37t35.5 -96q0 -45 -22.5 -80t-59 -54.5t-78.5 -19.5q-58 0 -98.5 36.5t-40.5 96.5q0 42 23 77.5z" />
    <glyph glyph-name="Igrave" unicode="&#xcc;" horiz-adv-x="640" 
d="M433 1522v-1522h-226v1522h226zM231 1639q-80 49 -156.5 107.5t-113.5 100.5l146 133q3 -8 145 -136.5t198 -178.5l-92 -92q-47 17 -127 66z" />
    <glyph glyph-name="Imacron" unicode="&#x12a;" horiz-adv-x="640" 
d="M433 1522v-1522h-226v1522h226zM597 1891v-162h-547v162h547z" />
    <glyph glyph-name="Iogonek" unicode="&#x12e;" horiz-adv-x="640" 
d="M536 -335v-118q-41 -31 -100 -45t-127 -14q-76 0 -136.5 27t-95 78t-34.5 119q0 82 58 160t140 128h-34v1522h226v-1522h-25q-149 -95 -149 -242q0 -64 39 -93t99 -29q64 0 139 29z" />
    <glyph glyph-name="Itilde" unicode="&#x128;" horiz-adv-x="640" 
d="M433 1522v-1522h-226v1522h226zM-26 1871q46 45 103 70t110 25q58 0 96 -21t83 -60q35 -30 58.5 -44t53.5 -14q49 0 92 28t83 71l86 -71q-23 -55 -69 -99.5t-102.5 -69.5t-109.5 -25q-58 0 -96.5 21.5t-82.5 61.5q-34 31 -58.5 46t-55.5 15q-82 0 -175 -102l-85 68
q23 55 69 100z" />
    <glyph glyph-name="J" unicode="J" horiz-adv-x="713" 
d="M129 -111.5q78 69.5 107 177.5q21 76 26.5 194.5t5.5 311.5v36v914h226v-909l1 -214q0 -99 -4 -174t-16 -139q-22 -122 -94.5 -212t-167.5 -141t-187 -65l-68 117q93 34 171 103.5z" />
    <glyph glyph-name="Jcircumflex" unicode="&#x134;" horiz-adv-x="713" 
d="M129 -111.5q78 69.5 107 177.5q21 76 26.5 194.5t5.5 311.5v36v914h226v-909l1 -214q0 -99 -4 -174t-16 -139q-22 -122 -94.5 -212t-167.5 -141t-187 -65l-68 117q93 34 171 103.5zM277 1990h197l262 -298l-144 -60l-216 202l-221 -202l-137 57z" />
    <glyph glyph-name="K" unicode="K" horiz-adv-x="1371" 
d="M1302 0h-257q-10 15 -26 46q-17 37 -35 67q-41 74 -95 158.5t-144 218.5q-26 39 -69 104t-69 107l-190 -220v-481h-223v1522h223v-764l603 764h263l-539 -656q33 -55 98.5 -152t83.5 -123q121 -179 192.5 -287.5t118.5 -193.5z" />
    <glyph glyph-name="Kcommaaccent" unicode="&#x136;" horiz-adv-x="1371" 
d="M605 -493q16 19 27.5 59t11.5 86q0 41 -19 79.5t-48 44.5v50l158 92q40 -19 68.5 -76t28.5 -136q0 -65 -24 -120.5t-59 -93t-69 -52.5l-75 41v26zM1302 0h-257q-10 15 -26 46q-17 37 -35 67q-41 74 -95 158.5t-144 218.5q-26 39 -69 104t-69 107l-190 -220v-481h-223
v1522h223v-764l603 764h263l-539 -656q33 -55 98.5 -152t83.5 -123q121 -179 192.5 -287.5t118.5 -193.5z" />
    <glyph glyph-name="L" unicode="L" horiz-adv-x="1080" 
d="M422 1522v-1347h604v-175h-832v1522h228z" />
    <glyph glyph-name="uni01C7" unicode="&#x1c7;" horiz-adv-x="1793" 
d="M422 1522v-1347h604v-175h-832v1522h228zM1209 -111.5q78 69.5 107 177.5q21 76 26.5 194.5t5.5 311.5v36v914h226v-909l1 -214q0 -99 -4 -174t-16 -139q-22 -122 -94.5 -212t-167.5 -141t-187 -65l-68 117q93 34 171 103.5z" />
    <glyph glyph-name="Lacute" unicode="&#x139;" horiz-adv-x="1080" 
d="M376 1843.5q142 128.5 145 136.5l146 -133q-74 -76 -194 -160.5t-202 -113.5l-93 92q56 50 198 178.5zM422 1522v-1347h604v-175h-832v1522h228z" />
    <glyph glyph-name="Lcaron" unicode="&#x13d;" horiz-adv-x="1080" 
d="M422 1522v-1347h604v-175h-832v1522h228zM728 1096l12 41q18 57 27 107.5t9 138.5q0 56 -17.5 116.5t-37.5 85.5l14 47l176 55q31 -28 46.5 -92.5t15.5 -148.5q0 -125 -37 -237t-90 -175l-110 34z" />
    <glyph glyph-name="Lcommaaccent" unicode="&#x13b;" horiz-adv-x="1080" 
d="M516 -493q16 19 27.5 59t11.5 86q0 41 -19 79.5t-48 44.5v50l158 92q40 -19 68.5 -76t28.5 -136q0 -65 -24 -120.5t-59 -93t-69 -52.5l-75 41v26zM422 1522v-1347h604v-175h-832v1522h228z" />
    <glyph glyph-name="Ldot" unicode="&#x13f;" horiz-adv-x="1357" 
d="M928 924q23 39 60 62.5t78 23.5q70 0 108.5 -45t38.5 -111q0 -47 -22.5 -86t-60 -61.5t-79.5 -22.5q-38 0 -72 20.5t-54 56t-20 78.5q0 46 23 85zM422 1522v-1347h604v-175h-832v1522h228z" />
    <glyph glyph-name="uni01C8" unicode="&#x1c8;" horiz-adv-x="1654" 
d="M422 1522v-1347h604v-175h-832v1522h228zM1055 -346q38 -7 63 -7q87 0 121 74t34 231v1186h220v-1101q0 -287 -88.5 -415.5t-264.5 -128.5q-33 0 -81 3.5t-58 9.5v163q16 -8 54 -15zM1258.5 1560q23.5 36 61.5 57t77 21q68 0 104.5 -38t36.5 -97q0 -44 -23 -80t-60 -56
t-79 -20q-38 0 -70 16.5t-51.5 47.5t-19.5 71q0 42 23.5 78z" />
    <glyph glyph-name="Lslash" unicode="&#x141;" horiz-adv-x="1080" 
d="M1026 175v-175h-832v613l-123 -45l-53 136l176 65v753h228v-669l390 144l53 -138l-443 -162v-522h604z" />
    <glyph glyph-name="M" unicode="M" horiz-adv-x="1923" 
d="M603 1522l282 -869l79 -323l75 323l270 869h299l182 -1522h-224l-93 946l-29 410l-102 -410l-318 -961h-120l-332 961l-112 409l-27 -409l-83 -946l-216 -1l154 1523h315z" />
    <glyph glyph-name="uni1E40" unicode="&#x1e40;" horiz-adv-x="1923" 
d="M840 1879.5q23 35.5 60.5 56t76.5 20.5q68 0 103.5 -37t35.5 -96q0 -45 -22.5 -80t-59 -54.5t-78.5 -19.5q-58 0 -98.5 36.5t-40.5 96.5q0 42 23 77.5zM603 1522l282 -869l79 -323l75 323l270 869h299l182 -1522h-224l-93 946l-29 410l-102 -410l-318 -961h-120l-332 961
l-112 409l-27 -409l-83 -946l-216 -1l154 1523h315z" />
    <glyph glyph-name="N" unicode="N" horiz-adv-x="1556" 
d="M1363 1522v-1522h-207l-630 967l-140 249l12 -264v-952h-205v1522h204l651 -1005l124 -225l-14 253v977h205z" />
    <glyph glyph-name="uni01CA" unicode="&#x1ca;" horiz-adv-x="2269" 
d="M1363 1522v-1522h-207l-630 967l-140 249l12 -264v-952h-205v1522h204l651 -1005l124 -225l-14 253v977h205zM1685 -111.5q78 69.5 107 177.5q21 76 26.5 194.5t5.5 311.5v36v914h226v-909l1 -214q0 -99 -4 -174t-16 -139q-22 -122 -94.5 -212t-167.5 -141t-187 -65
l-68 117q93 34 171 103.5z" />
    <glyph glyph-name="Nacute" unicode="&#x143;" horiz-adv-x="1556" 
d="M862 1843.5q142 128.5 145 136.5l146 -133q-74 -76 -194 -160.5t-202 -113.5l-93 92q56 50 198 178.5zM1363 1522v-1522h-207l-630 967l-140 249l12 -264v-952h-205v1522h204l651 -1005l124 -225l-14 253v977h205z" />
    <glyph glyph-name="Ncaron" unicode="&#x147;" horiz-adv-x="1556" 
d="M577 1990l216 -174l221 174l120 -57l-242 -263h-197l-246 260zM1363 1522v-1522h-207l-630 967l-140 249l12 -264v-952h-205v1522h204l651 -1005l124 -225l-14 253v977h205z" />
    <glyph glyph-name="Ncommaaccent" unicode="&#x145;" horiz-adv-x="1556" 
d="M656 -493q16 19 27.5 59t11.5 86q0 41 -19 79.5t-48 44.5v50l158 92q40 -19 68.5 -76t28.5 -136q0 -65 -24 -120.5t-59 -93t-69 -52.5l-75 41v26zM1363 1522v-1522h-207l-630 967l-140 249l12 -264v-952h-205v1522h204l651 -1005l124 -225l-14 253v977h205z" />
    <glyph glyph-name="uni1E44" unicode="&#x1e44;" horiz-adv-x="1556" 
d="M1363 1522v-1522h-207l-630 967l-140 249l12 -264v-952h-205v1522h204l651 -1005l124 -225l-14 253v977h205zM667 1879.5q23 35.5 60.5 56t76.5 20.5q68 0 103.5 -37t35.5 -96q0 -45 -22.5 -80t-59 -54.5t-78.5 -19.5q-58 0 -98.5 36.5t-40.5 96.5q0 42 23 77.5z" />
    <glyph glyph-name="Eng" unicode="&#x14a;" horiz-adv-x="1584" 
d="M1390 400q0 -117 -4.5 -197t-19.5 -149q-26 -129 -113 -228.5t-202 -158.5t-227 -73l-57 105q88 25 178 81.5t149 127t59 137.5l-628 931l-123 218l10 -239v-955h-217l-2 1522h205l677 -1014l111 -207l-15 240v981h219v-983v-139z" />
    <glyph glyph-name="uni01CB" unicode="&#x1cb;" horiz-adv-x="2130" 
d="M1363 1522v-1522h-207l-630 967l-140 249l12 -264v-952h-205v1522h204l651 -1005l124 -225l-14 253v977h205zM1531 -346q38 -7 63 -7q87 0 121 74t34 231v1186h220v-1101q0 -287 -88.5 -415.5t-264.5 -128.5q-33 0 -81 3.5t-58 9.5v163q16 -8 54 -15zM1734.5 1560
q23.5 36 61.5 57t77 21q68 0 104.5 -38t36.5 -97q0 -44 -23 -80t-60 -56t-79 -20q-38 0 -70 16.5t-51.5 47.5t-19.5 71q0 42 23.5 78z" />
    <glyph glyph-name="Ntilde" unicode="&#xd1;" horiz-adv-x="1556" 
d="M445 1871q46 45 103 70t110 25q58 0 96 -21t83 -60q35 -30 58.5 -44t53.5 -14q49 0 92 28t83 71l86 -71q-23 -55 -69 -99.5t-102.5 -69.5t-109.5 -25q-58 0 -96.5 21.5t-82.5 61.5q-34 31 -58.5 46t-55.5 15q-82 0 -175 -102l-85 68q23 55 69 100zM1363 1522v-1522h-207
l-630 967l-140 249l12 -264v-952h-205v1522h204l651 -1005l124 -225l-14 253v977h205z" />
    <glyph glyph-name="O" unicode="O" horiz-adv-x="1569" 
d="M193.5 1181q93.5 178 254 267.5t360.5 89.5q197 0 346.5 -93t232 -263.5t82.5 -397.5q0 -257 -91 -437t-250.5 -271.5t-365.5 -91.5q-199 0 -349 98t-231.5 272t-81.5 395q0 254 93.5 432zM1192 1071q-51 136 -150.5 216.5t-240.5 80.5q-133 0 -241 -67.5t-171.5 -204.5
t-63.5 -338q0 -162 53 -299.5t157 -220.5t250 -83q139 0 242.5 71t159.5 209.5t56 336.5q0 163 -51 299z" />
    <glyph glyph-name="Oacute" unicode="&#xd3;" horiz-adv-x="1569" 
d="M878 1843.5q142 128.5 145 136.5l146 -133q-74 -76 -194 -160.5t-202 -113.5l-93 92q56 50 198 178.5zM193.5 1181q93.5 178 254 267.5t360.5 89.5q197 0 346.5 -93t232 -263.5t82.5 -397.5q0 -257 -91 -437t-250.5 -271.5t-365.5 -91.5q-199 0 -349 98t-231.5 272
t-81.5 395q0 254 93.5 432zM1192 1071q-51 136 -150.5 216.5t-240.5 80.5q-133 0 -241 -67.5t-171.5 -204.5t-63.5 -338q0 -162 53 -299.5t157 -220.5t250 -83q139 0 242.5 71t159.5 209.5t56 336.5q0 163 -51 299z" />
    <glyph glyph-name="Obreve" unicode="&#x14e;" horiz-adv-x="1569" 
d="M619 1970q1 -33 10.5 -66.5t51.5 -66t127 -32.5q121 0 156 55t37 110h149q1 -10 1 -30q0 -84 -43 -154.5t-121 -112t-179 -41.5q-106 0 -183.5 41t-118.5 111.5t-41 155.5q0 20 1 30h153zM193.5 1181q93.5 178 254 267.5t360.5 89.5q197 0 346.5 -93t232 -263.5
t82.5 -397.5q0 -257 -91 -437t-250.5 -271.5t-365.5 -91.5q-199 0 -349 98t-231.5 272t-81.5 395q0 254 93.5 432zM1192 1071q-51 136 -150.5 216.5t-240.5 80.5q-133 0 -241 -67.5t-171.5 -204.5t-63.5 -338q0 -162 53 -299.5t157 -220.5t250 -83q139 0 242.5 71
t159.5 209.5t56 336.5q0 163 -51 299z" />
    <glyph glyph-name="uni01D1" unicode="&#x1d1;" horiz-adv-x="1569" 
d="M193.5 1181q93.5 178 254 267.5t360.5 89.5q197 0 346.5 -93t232 -263.5t82.5 -397.5q0 -257 -91 -437t-250.5 -271.5t-365.5 -91.5q-199 0 -349 98t-231.5 272t-81.5 395q0 254 93.5 432zM1192 1071q-51 136 -150.5 216.5t-240.5 80.5q-133 0 -241 -67.5t-171.5 -204.5
t-63.5 -338q0 -162 53 -299.5t157 -220.5t250 -83q139 0 242.5 71t159.5 209.5t56 336.5q0 163 -51 299zM593 1990l216 -174l221 174l120 -57l-242 -263h-197l-246 260z" />
    <glyph glyph-name="Ocircumflex" unicode="&#xd4;" horiz-adv-x="1569" 
d="M193.5 1181q93.5 178 254 267.5t360.5 89.5q197 0 346.5 -93t232 -263.5t82.5 -397.5q0 -257 -91 -437t-250.5 -271.5t-365.5 -91.5q-199 0 -349 98t-231.5 272t-81.5 395q0 254 93.5 432zM1192 1071q-51 136 -150.5 216.5t-240.5 80.5q-133 0 -241 -67.5t-171.5 -204.5
t-63.5 -338q0 -162 53 -299.5t157 -220.5t250 -83q139 0 242.5 71t159.5 209.5t56 336.5q0 163 -51 299zM709 1990h197l262 -298l-144 -60l-216 202l-221 -202l-137 57z" />
    <glyph glyph-name="Odieresis" unicode="&#xd6;" horiz-adv-x="1569" 
d="M434.5 1878.5q22.5 35.5 59.5 56t77 20.5q68 0 103 -37.5t35 -96.5q0 -45 -22 -80t-59 -54.5t-79 -19.5q-57 0 -97 36.5t-40 96.5q0 43 22.5 78.5zM931 1878.5q23 35.5 60 56t76 20.5q68 0 103 -37.5t35 -96.5q0 -45 -22 -80t-59 -54.5t-79 -19.5q-57 0 -97 36.5
t-40 96.5q0 43 23 78.5zM193.5 1181q93.5 178 254 267.5t360.5 89.5q197 0 346.5 -93t232 -263.5t82.5 -397.5q0 -257 -91 -437t-250.5 -271.5t-365.5 -91.5q-199 0 -349 98t-231.5 272t-81.5 395q0 254 93.5 432zM1192 1071q-51 136 -150.5 216.5t-240.5 80.5
q-133 0 -241 -67.5t-171.5 -204.5t-63.5 -338q0 -162 53 -299.5t157 -220.5t250 -83q139 0 242.5 71t159.5 209.5t56 336.5q0 163 -51 299z" />
    <glyph glyph-name="Ograve" unicode="&#xd2;" horiz-adv-x="1569" 
d="M718 1639q-80 49 -156.5 107.5t-113.5 100.5l146 133q3 -8 145 -136.5t198 -178.5l-92 -92q-47 17 -127 66zM193.5 1181q93.5 178 254 267.5t360.5 89.5q197 0 346.5 -93t232 -263.5t82.5 -397.5q0 -257 -91 -437t-250.5 -271.5t-365.5 -91.5q-199 0 -349 98t-231.5 272
t-81.5 395q0 254 93.5 432zM1192 1071q-51 136 -150.5 216.5t-240.5 80.5q-133 0 -241 -67.5t-171.5 -204.5t-63.5 -338q0 -162 53 -299.5t157 -220.5t250 -83q139 0 242.5 71t159.5 209.5t56 336.5q0 163 -51 299z" />
    <glyph glyph-name="Ohungarumlaut" unicode="&#x150;" horiz-adv-x="1569" 
d="M193.5 1181q93.5 178 254 267.5t360.5 89.5q197 0 346.5 -93t232 -263.5t82.5 -397.5q0 -257 -91 -437t-250.5 -271.5t-365.5 -91.5q-199 0 -349 98t-231.5 272t-81.5 395q0 254 93.5 432zM1192 1071q-51 136 -150.5 216.5t-240.5 80.5q-133 0 -241 -67.5t-171.5 -204.5
t-63.5 -338q0 -162 53 -299.5t157 -220.5t250 -83q139 0 242.5 71t159.5 209.5t56 336.5q0 163 -51 299zM554 1853.5q99 137.5 102 146.5l172 -87q-66 -91 -134.5 -165t-120.5 -107l-124 69q6 6 105 143.5zM1026.5 1850q102.5 134 106.5 142l163 -88q-56 -81 -127 -155.5
t-127 -107.5l-125 69q7 6 109.5 140z" />
    <glyph glyph-name="Omacron" unicode="&#x14c;" horiz-adv-x="1569" 
d="M1084 1891v-162h-547v162h547zM193.5 1181q93.5 178 254 267.5t360.5 89.5q197 0 346.5 -93t232 -263.5t82.5 -397.5q0 -257 -91 -437t-250.5 -271.5t-365.5 -91.5q-199 0 -349 98t-231.5 272t-81.5 395q0 254 93.5 432zM1192 1071q-51 136 -150.5 216.5t-240.5 80.5
q-133 0 -241 -67.5t-171.5 -204.5t-63.5 -338q0 -162 53 -299.5t157 -220.5t250 -83q139 0 242.5 71t159.5 209.5t56 336.5q0 163 -51 299z" />
    <glyph glyph-name="Oslash" unicode="&#xd8;" horiz-adv-x="1569" 
d="M1300.5 1317.5q81.5 -98.5 125 -234t43.5 -297.5q0 -259 -91.5 -439.5t-252 -271.5t-366.5 -91q-91 0 -179 24l-75 -208l-125 36l79 219q-112 59 -193 161.5t-123.5 239t-42.5 295.5q0 253 93.5 430.5t254 267t360.5 89.5q95 0 177 -21l80 221l125 -36l-83 -230
q112 -56 193.5 -154.5zM377 460.5q52 -136.5 150 -216.5l398 1105q-56 19 -124 19q-133 0 -241 -67.5t-171.5 -204.5t-63.5 -338q0 -161 52 -297.5zM1027.5 226q103.5 71 159.5 209.5t56 336.5q0 165 -52 302t-150 214l-399 -1109q65 -24 143 -24q139 0 242.5 71z" />
    <glyph glyph-name="Oslashacute" unicode="&#x1fe;" horiz-adv-x="1569" 
d="M1300.5 1317.5q81.5 -98.5 125 -234t43.5 -297.5q0 -259 -91.5 -439.5t-252 -271.5t-366.5 -91q-91 0 -179 24l-75 -208l-125 36l79 219q-112 59 -193 161.5t-123.5 239t-42.5 295.5q0 253 93.5 430.5t254 267t360.5 89.5q95 0 177 -21l80 221l125 -36l-83 -230
q112 -56 193.5 -154.5zM377 460.5q52 -136.5 150 -216.5l398 1105q-56 19 -124 19q-133 0 -241 -67.5t-171.5 -204.5t-63.5 -338q0 -161 52 -297.5zM1027.5 226q103.5 71 159.5 209.5t56 336.5q0 165 -52 302t-150 214l-399 -1109q65 -24 143 -24q139 0 242.5 71z
M778 1843.5q142 128.5 145 136.5l146 -133q-74 -76 -194 -160.5t-202 -113.5l-93 92q56 50 198 178.5z" />
    <glyph glyph-name="Otilde" unicode="&#xd5;" horiz-adv-x="1569" 
d="M461 1871q46 45 103 70t110 25q58 0 96 -21t83 -60q35 -30 58.5 -44t53.5 -14q49 0 92 28t83 71l86 -71q-23 -55 -69 -99.5t-102.5 -69.5t-109.5 -25q-58 0 -96.5 21.5t-82.5 61.5q-34 31 -58.5 46t-55.5 15q-82 0 -175 -102l-85 68q23 55 69 100zM193.5 1181
q93.5 178 254 267.5t360.5 89.5q197 0 346.5 -93t232 -263.5t82.5 -397.5q0 -257 -91 -437t-250.5 -271.5t-365.5 -91.5q-199 0 -349 98t-231.5 272t-81.5 395q0 254 93.5 432zM1192 1071q-51 136 -150.5 216.5t-240.5 80.5q-133 0 -241 -67.5t-171.5 -204.5t-63.5 -338
q0 -162 53 -299.5t157 -220.5t250 -83q139 0 242.5 71t159.5 209.5t56 336.5q0 163 -51 299z" />
    <glyph glyph-name="OE" unicode="&#x152;" horiz-adv-x="2063" 
d="M1989 175v-175h-949v51q-59 -33 -126 -50t-154 -17q-202 0 -353 101.5t-231 280.5t-76 403q5 245 94.5 415t246 258.5t364.5 95.5q58 2 119.5 -7t115.5 -33v24h876v-172h-653v-480h479v-172h-479v-523h726zM1040 232v1077q-92 60 -240 60q-130 0 -238 -66.5t-173 -203.5
t-65 -341q0 -164 53 -302.5t157.5 -221t249.5 -82.5q154 0 256 80z" />
    <glyph glyph-name="P" unicode="P" horiz-adv-x="1270" 
d="M299 1522q53 0 169 8q124 8 197 8q255 0 393 -120.5t138 -372.5q0 -166 -66.5 -283t-197 -178.5t-318.5 -61.5q-83 0 -159 4l-38 1v-527h-223v1522h105zM792.5 715q81.5 29 131.5 108t50 220q0 173 -87.5 254t-261.5 81q-132 0 -208 -19v-663q74 -10 184 -10t191.5 29z
" />
    <glyph glyph-name="uni1E56" unicode="&#x1e56;" horiz-adv-x="1270" 
d="M567 1879.5q23 35.5 60.5 56t76.5 20.5q68 0 103.5 -37t35.5 -96q0 -45 -22.5 -80t-59 -54.5t-78.5 -19.5q-58 0 -98.5 36.5t-40.5 96.5q0 42 23 77.5zM299 1522q53 0 169 8q124 8 197 8q255 0 393 -120.5t138 -372.5q0 -166 -66.5 -283t-197 -178.5t-318.5 -61.5
q-83 0 -159 4l-38 1v-527h-223v1522h105zM792.5 715q81.5 29 131.5 108t50 220q0 173 -87.5 254t-261.5 81q-132 0 -208 -19v-663q74 -10 184 -10t191.5 29z" />
    <glyph glyph-name="Thorn" unicode="&#xde;" horiz-adv-x="1262" 
d="M1182 793q0 -161 -66.5 -274.5t-196.5 -173.5t-318 -60q-60 0 -155 5q-20 2 -29 2v-292h-223v1522h223v-275l36 3q10 1 72.5 5t124.5 4q532 0 532 -466zM776 474q83 27 133.5 102.5t50.5 213.5q0 159 -87.5 234t-267.5 75q-116 0 -188 -17v-626q68 -9 162 -9
q114 0 197 27z" />
    <glyph glyph-name="Q" unicode="Q" horiz-adv-x="1569" 
d="M1511 -94v-160q-24 -16 -76 -28t-107 -12q-114 0 -208.5 24t-183 85t-169.5 169q-200 -1 -351.5 96.5t-233.5 272t-82 396.5q0 254 93.5 432t254 267.5t360.5 89.5q197 0 346.5 -93t232 -263.5t82.5 -397.5q0 -209 -61 -368t-171 -260t-258 -143q61 -64 153 -95t195 -31
q129 0 184 19zM378 458.5q53 -137.5 157 -220.5t250 -83q139 0 242.5 71t159.5 209.5t56 336.5q0 163 -51 299t-150.5 216.5t-240.5 80.5q-133 0 -241 -67.5t-171.5 -204.5t-63.5 -338q0 -162 53 -299.5z" />
    <glyph glyph-name="R" unicode="R" horiz-adv-x="1367" 
d="M1306 0h-253q-15 22 -33 63l-22 49q-19 40 -59 145q-42 112 -75.5 185.5t-79 131.5t-102.5 76q-59 -2 -265 -2v-648h-223v1522h97q54 0 157 7q160 9 231 9q244 0 381 -104.5t137 -323.5q0 -164 -71.5 -270t-203.5 -152q45 -31 84 -88t70.5 -121.5t75.5 -167.5
q62 -141 93 -199q33 -62 61 -112zM652 800q153 0 235 72.5t82 226.5q0 96 -32.5 156.5t-103 89.5t-187.5 29q-140 0 -229 -18v-550q53 -6 235 -6z" />
    <glyph glyph-name="Racute" unicode="&#x154;" horiz-adv-x="1367" 
d="M1306 0h-253q-15 22 -33 63l-22 49q-19 40 -59 145q-42 112 -75.5 185.5t-79 131.5t-102.5 76q-59 -2 -265 -2v-648h-223v1522h97q54 0 157 7q160 9 231 9q244 0 381 -104.5t137 -323.5q0 -164 -71.5 -270t-203.5 -152q45 -31 84 -88t70.5 -121.5t75.5 -167.5
q62 -141 93 -199q33 -62 61 -112zM652 800q153 0 235 72.5t82 226.5q0 96 -32.5 156.5t-103 89.5t-187.5 29q-140 0 -229 -18v-550q53 -6 235 -6zM780 1843.5q142 128.5 145 136.5l146 -133q-74 -76 -194 -160.5t-202 -113.5l-93 92q56 50 198 178.5z" />
    <glyph glyph-name="Rcaron" unicode="&#x158;" horiz-adv-x="1367" 
d="M495 1990l216 -174l221 174l120 -57l-242 -263h-197l-246 260zM1306 0h-253q-15 22 -33 63l-22 49q-19 40 -59 145q-42 112 -75.5 185.5t-79 131.5t-102.5 76q-59 -2 -265 -2v-648h-223v1522h97q54 0 157 7q160 9 231 9q244 0 381 -104.5t137 -323.5q0 -164 -71.5 -270
t-203.5 -152q45 -31 84 -88t70.5 -121.5t75.5 -167.5q62 -141 93 -199q33 -62 61 -112zM652 800q153 0 235 72.5t82 226.5q0 96 -32.5 156.5t-103 89.5t-187.5 29q-140 0 -229 -18v-550q53 -6 235 -6z" />
    <glyph glyph-name="Rcommaaccent" unicode="&#x156;" horiz-adv-x="1367" 
d="M602 -493q16 19 27.5 59t11.5 86q0 41 -19 79.5t-48 44.5v50l158 92q40 -19 68.5 -76t28.5 -136q0 -65 -24 -120.5t-59 -93t-69 -52.5l-75 41v26zM1306 0h-253q-15 22 -33 63l-22 49q-19 40 -59 145q-42 112 -75.5 185.5t-79 131.5t-102.5 76q-59 -2 -265 -2v-648h-223
v1522h97q54 0 157 7q160 9 231 9q244 0 381 -104.5t137 -323.5q0 -164 -71.5 -270t-203.5 -152q45 -31 84 -88t70.5 -121.5t75.5 -167.5q62 -141 93 -199q33 -62 61 -112zM652 800q153 0 235 72.5t82 226.5q0 96 -32.5 156.5t-103 89.5t-187.5 29q-140 0 -229 -18v-550
q53 -6 235 -6z" />
    <glyph glyph-name="S" unicode="S" horiz-adv-x="1132" 
d="M181 254q61 -38 161 -65.5t198 -27.5q148 0 225.5 51t77.5 160q0 72 -37.5 123t-103.5 91t-196 103q-167 81 -274 194t-107 264q0 138 72 225.5t186 126.5t248 39q125 0 215 -23.5t139 -55.5l-45 -176q-65 39 -133 59.5t-179 20.5q-76 0 -142 -20t-107 -62t-41 -104
q0 -73 29 -121.5t89.5 -89t184.5 -104.5q128 -66 214.5 -124.5t146.5 -143.5t60 -196q0 -137 -63.5 -230t-177.5 -138.5t-266 -45.5q-94 0 -181.5 14t-152 34t-93.5 39z" />
    <glyph glyph-name="Sacute" unicode="&#x15a;" horiz-adv-x="1132" 
d="M181 254q61 -38 161 -65.5t198 -27.5q148 0 225.5 51t77.5 160q0 72 -37.5 123t-103.5 91t-196 103q-167 81 -274 194t-107 264q0 138 72 225.5t186 126.5t248 39q125 0 215 -23.5t139 -55.5l-45 -176q-65 39 -133 59.5t-179 20.5q-76 0 -142 -20t-107 -62t-41 -104
q0 -73 29 -121.5t89.5 -89t184.5 -104.5q128 -66 214.5 -124.5t146.5 -143.5t60 -196q0 -137 -63.5 -230t-177.5 -138.5t-266 -45.5q-94 0 -181.5 14t-152 34t-93.5 39zM673 1843.5q142 128.5 145 136.5l146 -133q-74 -76 -194 -160.5t-202 -113.5l-93 92q56 50 198 178.5z
" />
    <glyph glyph-name="Scaron" unicode="&#x160;" horiz-adv-x="1132" 
d="M181 254q61 -38 161 -65.5t198 -27.5q148 0 225.5 51t77.5 160q0 72 -37.5 123t-103.5 91t-196 103q-167 81 -274 194t-107 264q0 138 72 225.5t186 126.5t248 39q125 0 215 -23.5t139 -55.5l-45 -176q-65 39 -133 59.5t-179 20.5q-76 0 -142 -20t-107 -62t-41 -104
q0 -73 29 -121.5t89.5 -89t184.5 -104.5q128 -66 214.5 -124.5t146.5 -143.5t60 -196q0 -137 -63.5 -230t-177.5 -138.5t-266 -45.5q-94 0 -181.5 14t-152 34t-93.5 39zM388 1990l216 -174l221 174l120 -57l-242 -263h-197l-246 260z" />
    <glyph glyph-name="Scedilla" unicode="&#x15e;" horiz-adv-x="1132" 
d="M948 108.5q-114 -103.5 -313 -121.5q31 -63 31 -167q0 -15 -2 -49q-10 -119 -77.5 -177t-162.5 -58q-42 0 -86 8t-61 20l15 142q22 -14 82 -14q53 0 87.5 36.5t39.5 113.5q5 32 5 69q0 42 -8 74q-122 6 -225 32.5t-145 53.5l53 183q61 -38 161 -65.5t198 -27.5
q148 0 225.5 51t77.5 160q0 72 -37.5 123t-103.5 91t-196 103q-167 81 -274 194t-107 264q0 138 72 225.5t186 126.5t248 39q125 0 215 -23.5t139 -55.5l-45 -176q-65 39 -133 59.5t-179 20.5q-76 0 -142 -20t-107 -62t-41 -104q0 -73 29 -121.5t89.5 -89t184.5 -104.5
q128 -66 214.5 -124.5t146.5 -143.5t60 -196q0 -186 -114 -289.5z" />
    <glyph glyph-name="Scircumflex" unicode="&#x15c;" horiz-adv-x="1132" 
d="M181 254q61 -38 161 -65.5t198 -27.5q148 0 225.5 51t77.5 160q0 72 -37.5 123t-103.5 91t-196 103q-167 81 -274 194t-107 264q0 138 72 225.5t186 126.5t248 39q125 0 215 -23.5t139 -55.5l-45 -176q-65 39 -133 59.5t-179 20.5q-76 0 -142 -20t-107 -62t-41 -104
q0 -73 29 -121.5t89.5 -89t184.5 -104.5q128 -66 214.5 -124.5t146.5 -143.5t60 -196q0 -137 -63.5 -230t-177.5 -138.5t-266 -45.5q-94 0 -181.5 14t-152 34t-93.5 39zM504 1990h197l262 -298l-144 -60l-216 202l-221 -202l-137 57z" />
    <glyph glyph-name="Scommaaccent" unicode="&#x218;" horiz-adv-x="1142" 
d="M477 -493q16 19 27.5 59t11.5 86q0 41 -19 79.5t-48 44.5v50l158 92q40 -19 68.5 -76t28.5 -136q0 -65 -24 -120.5t-59 -93t-69 -52.5l-75 41v26zM186 254q61 -38 161 -65.5t198 -27.5q148 0 225.5 51t77.5 160q0 72 -37.5 123t-103.5 91t-196 103q-167 81 -274 194
t-107 264q0 138 72 225.5t186 126.5t248 39q125 0 215 -23.5t139 -55.5l-45 -176q-65 39 -133 59.5t-179 20.5q-76 0 -142 -20t-107 -62t-41 -104q0 -73 29 -121.5t89.5 -89t184.5 -104.5q128 -66 214.5 -124.5t146.5 -143.5t60 -196q0 -137 -63.5 -230t-177.5 -138.5
t-266 -45.5q-94 0 -181.5 14t-152 34t-93.5 39z" />
    <glyph glyph-name="uni1E60" unicode="&#x1e60;" horiz-adv-x="1132" 
d="M478 1879.5q23 35.5 60.5 56t76.5 20.5q68 0 103.5 -37t35.5 -96q0 -45 -22.5 -80t-59 -54.5t-78.5 -19.5q-58 0 -98.5 36.5t-40.5 96.5q0 42 23 77.5zM181 254q61 -38 161 -65.5t198 -27.5q148 0 225.5 51t77.5 160q0 72 -37.5 123t-103.5 91t-196 103q-167 81 -274 194
t-107 264q0 138 72 225.5t186 126.5t248 39q125 0 215 -23.5t139 -55.5l-45 -176q-65 39 -133 59.5t-179 20.5q-76 0 -142 -20t-107 -62t-41 -104q0 -73 29 -121.5t89.5 -89t184.5 -104.5q128 -66 214.5 -124.5t146.5 -143.5t60 -196q0 -137 -63.5 -230t-177.5 -138.5
t-266 -45.5q-94 0 -181.5 14t-152 34t-93.5 39z" />
    <glyph glyph-name="uni1E9E" unicode="&#x1e9e;" horiz-adv-x="1495" 
d="M181 1174.5q76 175.5 230.5 269.5t384.5 94q112 0 189.5 -16.5t160.5 -45.5q44 -16 71.5 -23t53.5 -7l-2 -100l-260 -428q110 0 202 -50.5t147 -152.5t55 -250q0 -131 -55.5 -242.5t-164 -178.5t-261.5 -67q-147 0 -234 22.5t-155 63.5l81 174q37 -35 119 -61.5
t160 -26.5q76 0 142.5 35.5t108 106t41.5 172.5q0 122 -41 192t-135.5 101.5t-260.5 32.5l9 82l252 442q-38 29 -95 45t-122 16q-132 0 -238.5 -56t-168.5 -170t-62 -280v-868h-228v753q0 246 76 421.5z" />
    <glyph glyph-name="T" unicode="T" horiz-adv-x="1303" 
d="M63 1350v172h1177v-172h-477v-1350h-225v1350h-475z" />
    <glyph glyph-name="Tbar" unicode="&#x166;" horiz-adv-x="1303" 
d="M763 1350v-554h296v-145h-296v-651h-225v651h-289v145h289v554h-475v172h1177v-172h-477z" />
    <glyph glyph-name="Tcaron" unicode="&#x164;" horiz-adv-x="1303" 
d="M428 1990l216 -174l221 174l120 -57l-242 -263h-197l-246 260zM63 1350v172h1177v-172h-477v-1350h-225v1350h-475z" />
    <glyph glyph-name="uni0162" unicode="&#x162;" horiz-adv-x="1303" 
d="M1240 1522v-172h-477v-1350h-50q37 -68 37 -179q0 -16 -2 -50q-10 -119 -77.5 -177t-162.5 -58q-42 0 -86 8t-61 20l15 142q22 -14 82 -14q53 0 87.5 36.5t39.5 113.5q5 32 5 69q0 52 -13 89h-39v1350h-475v172h1177z" />
    <glyph glyph-name="uni021A" unicode="&#x21a;" horiz-adv-x="1303" 
d="M556 -493q16 19 27.5 59t11.5 86q0 41 -19 79.5t-48 44.5v50l158 92q40 -19 68.5 -76t28.5 -136q0 -65 -24 -120.5t-59 -93t-69 -52.5l-75 41v26zM63 1350v172h1177v-172h-477v-1350h-225v1350h-475z" />
    <glyph glyph-name="uni1E6A" unicode="&#x1e6a;" horiz-adv-x="1303" 
d="M518 1879.5q23 35.5 60.5 56t76.5 20.5q68 0 103.5 -37t35.5 -96q0 -45 -22.5 -80t-59 -54.5t-78.5 -19.5q-58 0 -98.5 36.5t-40.5 96.5q0 42 23 77.5zM63 1350v172h1177v-172h-477v-1350h-225v1350h-475z" />
    <glyph glyph-name="U" unicode="U" horiz-adv-x="1463" 
d="M159 1522h223l-1 -836q0 -205 42 -320.5t121.5 -161.5t203.5 -46q110 0 183 46.5t112.5 162.5t39.5 319v836h222v-892q0 -315 -141 -480.5t-423 -165.5q-305 0 -444 165t-138 484v889z" />
    <glyph glyph-name="Uacute" unicode="&#xda;" horiz-adv-x="1463" 
d="M815 1843.5q142 128.5 145 136.5l146 -133q-74 -76 -194 -160.5t-202 -113.5l-93 92q56 50 198 178.5zM159 1522h223l-1 -836q0 -205 42 -320.5t121.5 -161.5t203.5 -46q110 0 183 46.5t112.5 162.5t39.5 319v836h222v-892q0 -315 -141 -480.5t-423 -165.5
q-305 0 -444 165t-138 484v889z" />
    <glyph glyph-name="Ubreve" unicode="&#x16c;" horiz-adv-x="1463" 
d="M556 1970q1 -33 10.5 -66.5t51.5 -66t127 -32.5q121 0 156 55t37 110h149q1 -10 1 -30q0 -84 -43 -154.5t-121 -112t-179 -41.5q-106 0 -183.5 41t-118.5 111.5t-41 155.5q0 20 1 30h153zM159 1522h223l-1 -836q0 -205 42 -320.5t121.5 -161.5t203.5 -46q110 0 183 46.5
t112.5 162.5t39.5 319v836h222v-892q0 -315 -141 -480.5t-423 -165.5q-305 0 -444 165t-138 484v889z" />
    <glyph glyph-name="uni01D3" unicode="&#x1d3;" horiz-adv-x="1463" 
d="M159 1522h223l-1 -836q0 -205 42 -320.5t121.5 -161.5t203.5 -46q110 0 183 46.5t112.5 162.5t39.5 319v836h222v-892q0 -315 -141 -480.5t-423 -165.5q-305 0 -444 165t-138 484v889zM530 1990l216 -174l221 174l120 -57l-242 -263h-197l-246 260z" />
    <glyph glyph-name="Ucircumflex" unicode="&#xdb;" horiz-adv-x="1463" 
d="M159 1522h223l-1 -836q0 -205 42 -320.5t121.5 -161.5t203.5 -46q110 0 183 46.5t112.5 162.5t39.5 319v836h222v-892q0 -315 -141 -480.5t-423 -165.5q-305 0 -444 165t-138 484v889zM646 1990h197l262 -298l-144 -60l-216 202l-221 -202l-137 57z" />
    <glyph glyph-name="Udieresis" unicode="&#xdc;" horiz-adv-x="1463" 
d="M371.5 1878.5q22.5 35.5 59.5 56t77 20.5q68 0 103 -37.5t35 -96.5q0 -45 -22 -80t-59 -54.5t-79 -19.5q-57 0 -97 36.5t-40 96.5q0 43 22.5 78.5zM868 1878.5q23 35.5 60 56t76 20.5q68 0 103 -37.5t35 -96.5q0 -45 -22 -80t-59 -54.5t-79 -19.5q-57 0 -97 36.5
t-40 96.5q0 43 23 78.5zM159 1522h223l-1 -836q0 -205 42 -320.5t121.5 -161.5t203.5 -46q110 0 183 46.5t112.5 162.5t39.5 319v836h222v-892q0 -315 -141 -480.5t-423 -165.5q-305 0 -444 165t-138 484v889z" />
    <glyph glyph-name="Ugrave" unicode="&#xd9;" horiz-adv-x="1463" 
d="M655 1639q-80 49 -156.5 107.5t-113.5 100.5l146 133q3 -8 145 -136.5t198 -178.5l-92 -92q-47 17 -127 66zM159 1522h223l-1 -836q0 -205 42 -320.5t121.5 -161.5t203.5 -46q110 0 183 46.5t112.5 162.5t39.5 319v836h222v-892q0 -315 -141 -480.5t-423 -165.5
q-305 0 -444 165t-138 484v889z" />
    <glyph glyph-name="Uhungarumlaut" unicode="&#x170;" horiz-adv-x="1463" 
d="M159 1522h223l-1 -836q0 -205 42 -320.5t121.5 -161.5t203.5 -46q110 0 183 46.5t112.5 162.5t39.5 319v836h222v-892q0 -315 -141 -480.5t-423 -165.5q-305 0 -444 165t-138 484v889zM491 1853.5q99 137.5 102 146.5l172 -87q-66 -91 -134.5 -165t-120.5 -107l-124 69
q6 6 105 143.5zM963.5 1850q102.5 134 106.5 142l163 -88q-56 -81 -127 -155.5t-127 -107.5l-125 69q7 6 109.5 140z" />
    <glyph glyph-name="Umacron" unicode="&#x16a;" horiz-adv-x="1463" 
d="M1021 1891v-162h-547v162h547zM159 1522h223l-1 -836q0 -205 42 -320.5t121.5 -161.5t203.5 -46q110 0 183 46.5t112.5 162.5t39.5 319v836h222v-892q0 -315 -141 -480.5t-423 -165.5q-305 0 -444 165t-138 484v889z" />
    <glyph glyph-name="Uogonek" unicode="&#x172;" horiz-adv-x="1463" 
d="M1305 1522v-892q0 -255 -92 -412.5t-277 -208.5q-68 -64 -109.5 -136t-41.5 -128q0 -62 33.5 -85.5t94.5 -23.5q64 0 139 29v-118q-40 -30 -104 -44.5t-133 -14.5q-110 0 -178 56.5t-68 158.5q0 45 23.5 98t65 101.5t91.5 81.5h-8q-305 0 -444 165t-138 484v889h223
l-1 -836q0 -205 42 -320.5t121.5 -161.5t203.5 -46q110 0 183 46.5t112.5 162.5t39.5 319v836h222z" />
    <glyph glyph-name="Uring" unicode="&#x16e;" horiz-adv-x="1463" 
d="M159 1522h223l-1 -836q0 -205 42 -320.5t121.5 -161.5t203.5 -46q110 0 183 46.5t112.5 162.5t39.5 319v836h222v-892q0 -315 -141 -480.5t-423 -165.5q-305 0 -444 165t-138 484v889zM469 1955q45 60 118 87.5t157 27.5q148 0 234.5 -68t86.5 -193q0 -92 -43.5 -153.5
t-117 -91t-163.5 -29.5q-95 0 -166.5 32.5t-111 93t-39.5 141.5q0 93 45 153zM862.5 1910q-48.5 36 -124.5 36q-68 0 -113 -32t-45 -106q0 -68 45 -107.5t121 -39.5q77 0 121 34.5t44 110.5q0 68 -48.5 104z" />
    <glyph glyph-name="Utilde" unicode="&#x168;" horiz-adv-x="1463" 
d="M398 1871q46 45 103 70t110 25q58 0 96 -21t83 -60q35 -30 58.5 -44t53.5 -14q49 0 92 28t83 71l86 -71q-23 -55 -69 -99.5t-102.5 -69.5t-109.5 -25q-58 0 -96.5 21.5t-82.5 61.5q-34 31 -58.5 46t-55.5 15q-82 0 -175 -102l-85 68q23 55 69 100zM159 1522h223l-1 -836
q0 -205 42 -320.5t121.5 -161.5t203.5 -46q110 0 183 46.5t112.5 162.5t39.5 319v836h222v-892q0 -315 -141 -480.5t-423 -165.5q-305 0 -444 165t-138 484v889z" />
    <glyph glyph-name="V" unicode="V" horiz-adv-x="1355" 
d="M259 1522l360 -1024l67 -235l69 235l344 1024h234l-555 -1535h-187l-569 1535h237z" />
    <glyph glyph-name="W" unicode="W" horiz-adv-x="1918" 
d="M1896 1522l-393 -1538h-218l-290 998l-34 182l-35 -183l-294 -997h-191l-419 1538h229l242 -988l51 -276l50 276l287 988h161l291 -988l66 -278l47 277l226 989h224z" />
    <glyph glyph-name="Wacute" unicode="&#x1e82;" horiz-adv-x="1918" 
d="M1030 1843.5q142 128.5 145 136.5l146 -133q-74 -76 -194 -160.5t-202 -113.5l-93 92q56 50 198 178.5zM1896 1522l-393 -1538h-218l-290 998l-34 182l-35 -183l-294 -997h-191l-419 1538h229l242 -988l51 -276l50 276l287 988h161l291 -988l66 -278l47 277l226 989h224z
" />
    <glyph glyph-name="Wcircumflex" unicode="&#x174;" horiz-adv-x="1918" 
d="M1896 1522l-393 -1538h-218l-290 998l-34 182l-35 -183l-294 -997h-191l-419 1538h229l242 -988l51 -276l50 276l287 988h161l291 -988l66 -278l47 277l226 989h224zM861 1990h197l262 -298l-144 -60l-216 202l-221 -202l-137 57z" />
    <glyph glyph-name="Wdieresis" unicode="&#x1e84;" horiz-adv-x="1918" 
d="M586.5 1878.5q22.5 35.5 59.5 56t77 20.5q68 0 103 -37.5t35 -96.5q0 -45 -22 -80t-59 -54.5t-79 -19.5q-57 0 -97 36.5t-40 96.5q0 43 22.5 78.5zM1083 1878.5q23 35.5 60 56t76 20.5q68 0 103 -37.5t35 -96.5q0 -45 -22 -80t-59 -54.5t-79 -19.5q-57 0 -97 36.5
t-40 96.5q0 43 23 78.5zM1896 1522l-393 -1538h-218l-290 998l-34 182l-35 -183l-294 -997h-191l-419 1538h229l242 -988l51 -276l50 276l287 988h161l291 -988l66 -278l47 277l226 989h224z" />
    <glyph glyph-name="Wgrave" unicode="&#x1e80;" horiz-adv-x="1918" 
d="M870 1639q-80 49 -156.5 107.5t-113.5 100.5l146 133q3 -8 145 -136.5t198 -178.5l-92 -92q-47 17 -127 66zM1896 1522l-393 -1538h-218l-290 998l-34 182l-35 -183l-294 -997h-191l-419 1538h229l242 -988l51 -276l50 276l287 988h161l291 -988l66 -278l47 277l226 989
h224z" />
    <glyph glyph-name="X" unicode="X" horiz-adv-x="1314" 
d="M1272 0h-254l-269 448l-104 171l-101 -171l-262 -448h-239l480 786l-478 736l251 1l248 -403l123 -202l356 604h239l-477 -768z" />
    <glyph glyph-name="Y" unicode="Y" horiz-adv-x="1264" 
d="M749 594v-594h-226v594l-501 928h238l338 -660l43 -105l36 105l331 660h234z" />
    <glyph glyph-name="Yacute" unicode="&#xdd;" horiz-adv-x="1264" 
d="M749 594v-594h-226v594l-501 928h238l338 -660l43 -105l36 105l331 660h234zM720 1843.5q142 128.5 145 136.5l146 -133q-74 -76 -194 -160.5t-202 -113.5l-93 92q56 50 198 178.5z" />
    <glyph glyph-name="Ycircumflex" unicode="&#x176;" horiz-adv-x="1264" 
d="M749 594v-594h-226v594l-501 928h238l338 -660l43 -105l36 105l331 660h234zM551 1990h197l262 -298l-144 -60l-216 202l-221 -202l-137 57z" />
    <glyph glyph-name="Ydieresis" unicode="&#x178;" horiz-adv-x="1264" 
d="M749 594v-594h-226v594l-501 928h238l338 -660l43 -105l36 105l331 660h234zM276.5 1878.5q22.5 35.5 59.5 56t77 20.5q68 0 103 -37.5t35 -96.5q0 -45 -22 -80t-59 -54.5t-79 -19.5q-57 0 -97 36.5t-40 96.5q0 43 22.5 78.5zM773 1878.5q23 35.5 60 56t76 20.5
q68 0 103 -37.5t35 -96.5q0 -45 -22 -80t-59 -54.5t-79 -19.5q-57 0 -97 36.5t-40 96.5q0 43 23 78.5z" />
    <glyph glyph-name="uni1E8E" unicode="&#x1e8e;" horiz-adv-x="1264" 
d="M749 594v-594h-226v594l-501 928h238l338 -660l43 -105l36 105l331 660h234zM525 1879.5q23 35.5 60.5 56t76.5 20.5q68 0 103.5 -37t35.5 -96q0 -45 -22.5 -80t-59 -54.5t-78.5 -19.5q-58 0 -98.5 36.5t-40.5 96.5q0 42 23 77.5z" />
    <glyph glyph-name="Ygrave" unicode="&#x1ef2;" horiz-adv-x="1264" 
d="M749 594v-594h-226v594l-501 928h238l338 -660l43 -105l36 105l331 660h234zM560 1639q-80 49 -156.5 107.5t-113.5 100.5l146 133q3 -8 145 -136.5t198 -178.5l-92 -92q-47 17 -127 66z" />
    <glyph glyph-name="Z" unicode="Z" horiz-adv-x="1294" 
d="M866 1273l58 71h-750v178h996l46 -81l-760 -1181l-74 -85h775v-175h-1023l-45 84z" />
    <glyph glyph-name="Zacute" unicode="&#x179;" horiz-adv-x="1294" 
d="M866 1273l58 71h-750v178h996l46 -81l-760 -1181l-74 -85h775v-175h-1023l-45 84zM749 1843.5q142 128.5 145 136.5l146 -133q-74 -76 -194 -160.5t-202 -113.5l-93 92q56 50 198 178.5z" />
    <glyph glyph-name="Zcaron" unicode="&#x17d;" horiz-adv-x="1294" 
d="M464 1990l216 -174l221 174l120 -57l-242 -263h-197l-246 260zM866 1273l58 71h-750v178h996l46 -81l-760 -1181l-74 -85h775v-175h-1023l-45 84z" />
    <glyph glyph-name="Zdotaccent" unicode="&#x17b;" horiz-adv-x="1294" 
d="M554 1879.5q23 35.5 60.5 56t76.5 20.5q68 0 103.5 -37t35.5 -96q0 -45 -22.5 -80t-59 -54.5t-78.5 -19.5q-58 0 -98.5 36.5t-40.5 96.5q0 42 23 77.5zM866 1273l58 71h-750v178h996l46 -81l-760 -1181l-74 -85h775v-175h-1023l-45 84z" />
    <glyph glyph-name="I.uc" horiz-adv-x="640" 
d="M433 1522v-1522h-226v1522h226zM196 1879.5q23 35.5 60.5 56t76.5 20.5q68 0 103.5 -37t35.5 -96q0 -45 -22.5 -80t-59 -54.5t-78.5 -19.5q-58 0 -98.5 36.5t-40.5 96.5q0 42 23 77.5z" />
    <glyph glyph-name="a" unicode="a" horiz-adv-x="1131" 
d="M784 1127q88 -30 137 -109.5t49 -223.5v-810h-90q-45 0 -68 6t-36 28t-13 70v8q-50 -46 -137.5 -79t-182.5 -33q-101 0 -180.5 39t-124 111.5t-44.5 170.5q0 108 58.5 187t163.5 122q93 37 210.5 55.5t223.5 18.5v115q0 80 -25.5 120t-76.5 54t-141 14q-48 0 -110.5 -13
t-117 -32.5t-80.5 -37.5l-54 144q26 16 94.5 41t156 44.5t168.5 19.5q132 0 220 -30zM607 162q52 14 91.5 33.5t51.5 33.5v319q-73 0 -164.5 -14t-147.5 -41q-61 -29 -94 -68t-33 -101q0 -176 197 -176q47 0 99 14z" />
    <glyph glyph-name="aacute" unicode="&#xe1;" horiz-adv-x="1131" 
d="M784 1127q88 -30 137 -109.5t49 -223.5v-810h-90q-45 0 -68 6t-36 28t-13 70v8q-50 -46 -137.5 -79t-182.5 -33q-101 0 -180.5 39t-124 111.5t-44.5 170.5q0 108 58.5 187t163.5 122q93 37 210.5 55.5t223.5 18.5v115q0 80 -25.5 120t-76.5 54t-141 14q-48 0 -110.5 -13
t-117 -32.5t-80.5 -37.5l-54 144q26 16 94.5 41t156 44.5t168.5 19.5q132 0 220 -30zM607 162q52 14 91.5 33.5t51.5 33.5v319q-73 0 -164.5 -14t-147.5 -41q-61 -29 -94 -68t-33 -101q0 -176 197 -176q47 0 99 14zM457 1407q119 131 187.5 210.5t129.5 165.5l156 -135
q-24 -40 -103 -120.5t-162 -150.5t-118 -83l-111 90z" />
    <glyph glyph-name="abreve" unicode="&#x103;" horiz-adv-x="1131" 
d="M784 1127q88 -30 137 -109.5t49 -223.5v-810h-90q-45 0 -68 6t-36 28t-13 70v8q-50 -46 -137.5 -79t-182.5 -33q-101 0 -180.5 39t-124 111.5t-44.5 170.5q0 108 58.5 187t163.5 122q93 37 210.5 55.5t223.5 18.5v115q0 80 -25.5 120t-76.5 54t-141 14q-48 0 -110.5 -13
t-117 -32.5t-80.5 -37.5l-54 144q26 16 94.5 41t156 44.5t168.5 19.5q132 0 220 -30zM607 162q52 14 91.5 33.5t51.5 33.5v319q-73 0 -164.5 -14t-147.5 -41q-61 -29 -94 -68t-33 -101q0 -176 197 -176q47 0 99 14zM377 1685q1 -40 10.5 -81.5t51.5 -82.5t128 -41
q120 0 154.5 68.5t37.5 136.5h150q1 -10 1 -31q0 -90 -44 -169.5t-122.5 -128t-177.5 -48.5q-104 0 -182 48t-120 127.5t-42 170.5q0 21 1 31h154z" />
    <glyph glyph-name="uni01CE" unicode="&#x1ce;" horiz-adv-x="1131" 
d="M784 1127q88 -30 137 -109.5t49 -223.5v-810h-90q-45 0 -68 6t-36 28t-13 70v8q-50 -46 -137.5 -79t-182.5 -33q-101 0 -180.5 39t-124 111.5t-44.5 170.5q0 108 58.5 187t163.5 122q93 37 210.5 55.5t223.5 18.5v115q0 80 -25.5 120t-76.5 54t-141 14q-48 0 -110.5 -13
t-117 -32.5t-80.5 -37.5l-54 144q26 16 94.5 41t156 44.5t168.5 19.5q132 0 220 -30zM607 162q52 14 91.5 33.5t51.5 33.5v319q-73 0 -164.5 -14t-147.5 -41q-61 -29 -94 -68t-33 -101q0 -176 197 -176q47 0 99 14zM569 1487l232 222l135 -56l-268 -332h-198l-276 333
l126 56z" />
    <glyph glyph-name="acircumflex" unicode="&#xe2;" horiz-adv-x="1131" 
d="M784 1127q88 -30 137 -109.5t49 -223.5v-810h-90q-45 0 -68 6t-36 28t-13 70v8q-50 -46 -137.5 -79t-182.5 -33q-101 0 -180.5 39t-124 111.5t-44.5 170.5q0 108 58.5 187t163.5 122q93 37 210.5 55.5t223.5 18.5v115q0 80 -25.5 120t-76.5 54t-141 14q-48 0 -110.5 -13
t-117 -32.5t-80.5 -37.5l-54 144q26 16 94.5 41t156 44.5t168.5 19.5q132 0 220 -30zM607 162q52 14 91.5 33.5t51.5 33.5v319q-73 0 -164.5 -14t-147.5 -41q-61 -29 -94 -68t-33 -101q0 -176 197 -176q47 0 99 14zM468 1682h198l268 -332l-135 -56l-232 222l-249 -223
l-126 56z" />
    <glyph glyph-name="adieresis" unicode="&#xe4;" horiz-adv-x="1131" 
d="M784 1127q88 -30 137 -109.5t49 -223.5v-810h-90q-45 0 -68 6t-36 28t-13 70v8q-50 -46 -137.5 -79t-182.5 -33q-101 0 -180.5 39t-124 111.5t-44.5 170.5q0 108 58.5 187t163.5 122q93 37 210.5 55.5t223.5 18.5v115q0 80 -25.5 120t-76.5 54t-141 14q-48 0 -110.5 -13
t-117 -32.5t-80.5 -37.5l-54 144q26 16 94.5 41t156 44.5t168.5 19.5q132 0 220 -30zM607 162q52 14 91.5 33.5t51.5 33.5v319q-73 0 -164.5 -14t-147.5 -41q-61 -29 -94 -68t-33 -101q0 -176 197 -176q47 0 99 14zM217.5 1567.5q22.5 34.5 58.5 54.5t74 20q65 0 97.5 -36
t32.5 -94q0 -43 -21.5 -77t-57 -53t-75.5 -19q-56 0 -93.5 35.5t-37.5 94.5q0 40 22.5 74.5zM675.5 1567.5q22.5 34.5 58.5 54.5t74 20q64 0 97 -36.5t33 -93.5q0 -43 -21.5 -77t-57 -53t-75.5 -19q-56 0 -93.5 35.5t-37.5 94.5q0 40 22.5 74.5z" />
    <glyph glyph-name="agrave" unicode="&#xe0;" horiz-adv-x="1131" 
d="M784 1127q88 -30 137 -109.5t49 -223.5v-810h-90q-45 0 -68 6t-36 28t-13 70v8q-50 -46 -137.5 -79t-182.5 -33q-101 0 -180.5 39t-124 111.5t-44.5 170.5q0 108 58.5 187t163.5 122q93 37 210.5 55.5t223.5 18.5v115q0 80 -25.5 120t-76.5 54t-141 14q-48 0 -110.5 -13
t-117 -32.5t-80.5 -37.5l-54 144q26 16 94.5 41t156 44.5t168.5 19.5q132 0 220 -30zM607 162q52 14 91.5 33.5t51.5 33.5v319q-73 0 -164.5 -14t-147.5 -41q-61 -29 -94 -68t-33 -101q0 -176 197 -176q47 0 99 14zM446 1378.5q-80 66.5 -156.5 143.5t-108.5 126l157 135
q97 -125 306 -362l32 -37l-111 -90q-39 18 -119 84.5z" />
    <glyph glyph-name="amacron" unicode="&#x101;" horiz-adv-x="1131" 
d="M784 1127q88 -30 137 -109.5t49 -223.5v-810h-90q-45 0 -68 6t-36 28t-13 70v8q-50 -46 -137.5 -79t-182.5 -33q-101 0 -180.5 39t-124 111.5t-44.5 170.5q0 108 58.5 187t163.5 122q93 37 210.5 55.5t223.5 18.5v115q0 80 -25.5 120t-76.5 54t-141 14q-48 0 -110.5 -13
t-117 -32.5t-80.5 -37.5l-54 144q26 16 94.5 41t156 44.5t168.5 19.5q132 0 220 -30zM607 162q52 14 91.5 33.5t51.5 33.5v319q-73 0 -164.5 -14t-147.5 -41q-61 -29 -94 -68t-33 -101q0 -176 197 -176q47 0 99 14zM841 1588v-163h-547v163h547z" />
    <glyph glyph-name="aogonek" unicode="&#x105;" horiz-adv-x="1131" 
d="M1042 -335v-118q-40 -30 -104 -44.5t-133 -14.5q-110 0 -178 56t-68 158q0 56 33 113t86.5 104.5t114.5 79.5q-15 11 -22.5 32t-7.5 57v8q-50 -46 -137.5 -79t-182.5 -33q-101 0 -180.5 39t-124 111.5t-44.5 170.5q0 108 58.5 187t163.5 122q93 37 210.5 55.5t223.5 18.5
v115q0 80 -25.5 120t-76.5 54t-141 14q-48 0 -110.5 -13t-117 -32.5t-80.5 -37.5l-54 144q26 16 94.5 41t156 44.5t168.5 19.5q132 0 220 -30t137 -109.5t49 -223.5v-810h-15q-82 -52 -131 -113t-49 -127q0 -62 33.5 -85t94.5 -23q64 0 139 29zM607 162q52 14 91.5 33.5
t51.5 33.5v319q-73 0 -164.5 -14t-147.5 -41q-61 -29 -94 -68t-33 -101q0 -176 197 -176q47 0 99 14z" />
    <glyph glyph-name="aring" unicode="&#xe5;" horiz-adv-x="1131" 
d="M784 1127q88 -30 137 -109.5t49 -223.5v-810h-90q-45 0 -68 6t-36 28t-13 70v8q-50 -46 -137.5 -79t-182.5 -33q-101 0 -180.5 39t-124 111.5t-44.5 170.5q0 108 58.5 187t163.5 122q93 37 210.5 55.5t223.5 18.5v115q0 80 -25.5 120t-76.5 54t-141 14q-48 0 -110.5 -13
t-117 -32.5t-80.5 -37.5l-54 144q26 16 94.5 41t156 44.5t168.5 19.5q132 0 220 -30zM607 162q52 14 91.5 33.5t51.5 33.5v319q-73 0 -164.5 -14t-147.5 -41q-61 -29 -94 -68t-33 -101q0 -176 197 -176q47 0 99 14zM291.5 1755q45.5 61 118 89.5t156.5 28.5
q148 0 234.5 -69.5t86.5 -195.5q0 -92 -43.5 -155t-117 -94t-163.5 -31q-94 0 -166 33.5t-111.5 95.5t-39.5 144q0 93 45.5 154zM684.5 1711q-48.5 38 -123.5 38q-67 0 -113 -34t-46 -108q0 -68 45 -110.5t120 -42.5q77 0 121.5 37t44.5 114q0 68 -48.5 106z" />
    <glyph glyph-name="atilde" unicode="&#xe3;" horiz-adv-x="1131" 
d="M784 1127q88 -30 137 -109.5t49 -223.5v-810h-90q-45 0 -68 6t-36 28t-13 70v8q-50 -46 -137.5 -79t-182.5 -33q-101 0 -180.5 39t-124 111.5t-44.5 170.5q0 108 58.5 187t163.5 122q93 37 210.5 55.5t223.5 18.5v115q0 80 -25.5 120t-76.5 54t-141 14q-48 0 -110.5 -13
t-117 -32.5t-80.5 -37.5l-54 144q26 16 94.5 41t156 44.5t168.5 19.5q132 0 220 -30zM607 162q52 14 91.5 33.5t51.5 33.5v319q-73 0 -164.5 -14t-147.5 -41q-61 -29 -94 -68t-33 -101q0 -176 197 -176q47 0 99 14zM211 1549.5q41 44.5 94.5 71.5t111.5 27q59 0 98.5 -20.5
t84.5 -59.5q34 -29 57.5 -43t54.5 -14q60 0 100.5 26t82.5 72l86 -72q-41 -85 -112 -139t-158 -54q-64 0 -103.5 21.5t-83.5 60.5q-33 29 -55.5 42.5t-53.5 13.5q-54 0 -98.5 -27.5t-84.5 -69.5l-85 68q23 52 64 96.5z" />
    <glyph glyph-name="ae" unicode="&#xe6;" horiz-adv-x="1780" 
d="M1681 600.5q-2 -44.5 -9 -78.5h-702q1 -7 1 -20q9 -194 100 -272.5t245 -78.5q61 0 155 19t134 42l42 -126q-55 -44 -168 -73t-220 -29q-267 0 -397 178q-77 -90 -182.5 -134t-230.5 -44q-101 0 -182 39t-127 111.5t-46 170.5q0 107 60 186t162 123q176 74 435 74v115
q0 80 -24 120t-70.5 54t-129.5 14q-72 0 -174 -28.5t-149 -57.5l-54 147q27 16 99 41t162 44.5t170 19.5q127 0 207 -31.5t120 -111.5q66 68 158 105t207 37q113 0 204.5 -49.5t146.5 -146.5t59 -234q0 -81 -2 -125.5zM1479 715q0 127 -51.5 206t-176.5 79
q-111 0 -184 -78.5t-91 -253.5h501q2 32 2 47zM673 185.5q87 37.5 127 93.5q-43 117 -46 271l-1 -2q-89 0 -173 -13.5t-142 -41.5q-60 -29 -91.5 -68t-31.5 -101q0 -88 45.5 -132t143.5 -44q82 0 169 37.5z" />
    <glyph glyph-name="aeacute" unicode="&#x1fd;" horiz-adv-x="1780" 
d="M795 1407q119 131 187.5 210.5t129.5 165.5l156 -135q-24 -40 -103 -120.5t-162 -150.5t-118 -83l-111 90zM1681 600.5q-2 -44.5 -9 -78.5h-702q1 -7 1 -20q9 -194 100 -272.5t245 -78.5q61 0 155 19t134 42l42 -126q-55 -44 -168 -73t-220 -29q-267 0 -397 178
q-77 -90 -182.5 -134t-230.5 -44q-101 0 -182 39t-127 111.5t-46 170.5q0 107 60 186t162 123q176 74 435 74v115q0 80 -24 120t-70.5 54t-129.5 14q-72 0 -174 -28.5t-149 -57.5l-54 147q27 16 99 41t162 44.5t170 19.5q127 0 207 -31.5t120 -111.5q66 68 158 105t207 37
q113 0 204.5 -49.5t146.5 -146.5t59 -234q0 -81 -2 -125.5zM1479 715q0 127 -51.5 206t-176.5 79q-111 0 -184 -78.5t-91 -253.5h501q2 32 2 47zM673 185.5q87 37.5 127 93.5q-43 117 -46 271l-1 -2q-89 0 -173 -13.5t-142 -41.5q-60 -29 -91.5 -68t-31.5 -101
q0 -88 45.5 -132t143.5 -44q82 0 169 37.5z" />
    <glyph glyph-name="b" unicode="b" horiz-adv-x="1238" 
d="M917 1095.5q102 -60.5 163 -183t61 -300.5q0 -183 -71.5 -326.5t-202.5 -223.5t-301 -80q-74 0 -158.5 14t-151.5 33.5t-90 34.5v1597h220v-472l-8 -159q53 54 126.5 90t186.5 36q124 0 226 -60.5zM843.5 886.5q-73.5 96.5 -213.5 96.5q-73 0 -134.5 -27.5t-109.5 -65.5
v-706q57 -40 205 -40q94 0 168 52t116 153t42 244q0 197 -73.5 293.5z" />
    <glyph glyph-name="uni1E03" unicode="&#x1e03;" horiz-adv-x="1238" 
d="M917 1095.5q102 -60.5 163 -183t61 -300.5q0 -183 -71.5 -326.5t-202.5 -223.5t-301 -80q-74 0 -158.5 14t-151.5 33.5t-90 34.5v1597h220v-472l-8 -159q53 54 126.5 90t186.5 36q124 0 226 -60.5zM843.5 886.5q-73.5 96.5 -213.5 96.5q-73 0 -134.5 -27.5t-109.5 -65.5
v-706q57 -40 205 -40q94 0 168 52t116 153t42 244q0 197 -73.5 293.5zM614.5 1560q23.5 36 61.5 57t77 21q68 0 104.5 -38t36.5 -97q0 -44 -23 -80t-60 -56t-79 -20q-38 0 -70 16.5t-51.5 47.5t-19.5 71q0 42 23.5 78z" />
    <glyph glyph-name="c" unicode="c" horiz-adv-x="1002" 
d="M820 1137.5q75 -18.5 108 -40.5l-35 -174q-46 32 -108 47.5t-148 15.5t-160.5 -44t-120.5 -137.5t-46 -235.5q0 -132 42 -226.5t115 -143.5t164 -49q79 0 154 20.5t118 46.5l45 -125q-53 -49 -148 -78.5t-202 -29.5q-156 0 -269.5 74.5t-172.5 204.5t-59 295
q0 171 62.5 306.5t186.5 213.5t302 78q97 0 172 -18.5z" />
    <glyph glyph-name="cacute" unicode="&#x107;" horiz-adv-x="1002" 
d="M503 1407q119 131 187.5 210.5t129.5 165.5l156 -135q-24 -40 -103 -120.5t-162 -150.5t-118 -83l-111 90zM820 1137.5q75 -18.5 108 -40.5l-35 -174q-46 32 -108 47.5t-148 15.5t-160.5 -44t-120.5 -137.5t-46 -235.5q0 -132 42 -226.5t115 -143.5t164 -49
q79 0 154 20.5t118 46.5l45 -125q-53 -49 -148 -78.5t-202 -29.5q-156 0 -269.5 74.5t-172.5 204.5t-59 295q0 171 62.5 306.5t186.5 213.5t302 78q97 0 172 -18.5z" />
    <glyph glyph-name="ccaron" unicode="&#x10d;" horiz-adv-x="1002" 
d="M615 1487l232 222l135 -56l-268 -332h-198l-276 333l126 56zM820 1137.5q75 -18.5 108 -40.5l-35 -174q-46 32 -108 47.5t-148 15.5t-160.5 -44t-120.5 -137.5t-46 -235.5q0 -132 42 -226.5t115 -143.5t164 -49q79 0 154 20.5t118 46.5l45 -125q-53 -49 -148 -78.5
t-202 -29.5q-156 0 -269.5 74.5t-172.5 204.5t-59 295q0 171 62.5 306.5t186.5 213.5t302 78q97 0 172 -18.5z" />
    <glyph glyph-name="ccedilla" unicode="&#xe7;" horiz-adv-x="1002" 
d="M821.5 20.5q-80.5 -28.5 -174.5 -34.5q30 -65 30 -166q0 -15 -2 -49q-10 -119 -77.5 -177t-162.5 -58q-42 0 -86 8t-61 20l15 142q22 -14 82 -14q53 0 87.5 36.5t39.5 113.5q5 43 5 70q0 44 -10 79q-129 21 -221.5 99t-140.5 199t-48 269q0 171 62.5 306.5t186.5 213.5
t302 78q97 0 172 -18.5t108 -40.5l-35 -174q-46 32 -108 47.5t-148 15.5t-160.5 -44t-120.5 -137.5t-46 -235.5q0 -132 42 -226.5t115 -143.5t164 -49q79 0 154 20.5t118 46.5l45 -125q-46 -43 -126.5 -71.5z" />
    <glyph glyph-name="ccircumflex" unicode="&#x109;" horiz-adv-x="1002" 
d="M514 1682h198l268 -332l-135 -56l-232 222l-249 -223l-126 56zM820 1137.5q75 -18.5 108 -40.5l-35 -174q-46 32 -108 47.5t-148 15.5t-160.5 -44t-120.5 -137.5t-46 -235.5q0 -132 42 -226.5t115 -143.5t164 -49q79 0 154 20.5t118 46.5l45 -125q-53 -49 -148 -78.5
t-202 -29.5q-156 0 -269.5 74.5t-172.5 204.5t-59 295q0 171 62.5 306.5t186.5 213.5t302 78q97 0 172 -18.5z" />
    <glyph glyph-name="cdotaccent" unicode="&#x10b;" horiz-adv-x="1002" 
d="M820 1137.5q75 -18.5 108 -40.5l-35 -174q-46 32 -108 47.5t-148 15.5t-160.5 -44t-120.5 -137.5t-46 -235.5q0 -132 42 -226.5t115 -143.5t164 -49q79 0 154 20.5t118 46.5l45 -125q-53 -49 -148 -78.5t-202 -29.5q-156 0 -269.5 74.5t-172.5 204.5t-59 295
q0 171 62.5 306.5t186.5 213.5t302 78q97 0 172 -18.5zM483.5 1560q23.5 36 61.5 57t77 21q68 0 104.5 -38t36.5 -97q0 -44 -23 -80t-60 -56t-79 -20q-38 0 -70 16.5t-51.5 47.5t-19.5 71q0 42 23.5 78z" />
    <glyph glyph-name="d" unicode="d" horiz-adv-x="1237" 
d="M1071 1664v-1680h-95q-39 0 -62.5 6t-37 25t-13.5 57v41q-54 -55 -128 -92t-189 -37q-124 0 -225.5 60.5t-162.5 183t-61 300.5q0 183 71 326t200.5 222.5t299.5 79.5q96 0 186 -28l-3 61v475h220zM394.5 253.5q73.5 -96.5 212.5 -96.5q73 0 135.5 27.5t108.5 64.5v697
q-30 26 -80 38t-125 12q-93 0 -167 -52t-116 -153.5t-42 -243.5q0 -197 73.5 -293.5z" />
    <glyph glyph-name="eth" unicode="&#xf0;" horiz-adv-x="1190" 
d="M1000.5 1153.5q113.5 -245.5 113.5 -545.5q0 -209 -63.5 -351.5t-179 -213t-272.5 -70.5q-153 0 -267 71t-175.5 202t-61.5 307q0 184 63.5 320t178.5 208.5t267 72.5q65 0 119.5 -19.5t96.5 -54.5q-39 109 -108 203.5t-159 171.5l-134 -149l-115 90l133 143
q-108 70 -215 107l52 125q144 -45 268 -118q36 39 78.5 90.5t55.5 67.5l117 -90q-12 -14 -53 -61t-79 -86l13 -10q213 -165 326.5 -410.5zM896 692q0 90 -6 157q-7 34 -39 66t-92 53.5t-144 21.5q-149 0 -225.5 -116.5t-76.5 -312.5q0 -128 34 -226.5t102.5 -154.5
t166.5 -56q84 0 147 53t97.5 150.5t34.5 226.5z" />
    <glyph glyph-name="dcaron" unicode="&#x10f;" horiz-adv-x="1648" 
d="M1071 1664v-1680h-95q-39 0 -62.5 6t-37 25t-13.5 57v41q-54 -55 -128 -92t-189 -37q-124 0 -225.5 60.5t-162.5 183t-61 300.5q0 183 71 326t200.5 222.5t299.5 79.5q96 0 186 -28l-3 61v475h220zM394.5 253.5q73.5 -96.5 212.5 -96.5q73 0 135.5 27.5t108.5 64.5v697
q-30 26 -80 38t-125 12q-93 0 -167 -52t-116 -153.5t-42 -243.5q0 -197 73.5 -293.5zM1300 1096l12 41q18 57 27 107.5t9 138.5q0 56 -17.5 116.5t-37.5 85.5l14 47l176 55q31 -28 46.5 -92.5t15.5 -148.5q0 -125 -37 -237t-90 -175l-110 34z" />
    <glyph glyph-name="dcroat" unicode="&#x111;" horiz-adv-x="1237" 
d="M1212 1306h-141v-1322h-95q-39 0 -62.5 6t-37 25t-13.5 57v41q-54 -55 -128 -92t-189 -37q-124 0 -225.5 60.5t-162.5 183t-61 300.5q0 183 71 326t200.5 222.5t299.5 79.5q96 0 186 -28l-3 61v117h-270v141h270v217h220v-217h141v-141zM394.5 253.5
q73.5 -96.5 212.5 -96.5q73 0 135.5 27.5t108.5 64.5v697q-30 26 -80 38t-125 12q-93 0 -167 -52t-116 -153.5t-42 -243.5q0 -197 73.5 -293.5z" />
    <glyph glyph-name="uni1E0B" unicode="&#x1e0b;" horiz-adv-x="1237" 
d="M1071 1664v-1680h-95q-39 0 -62.5 6t-37 25t-13.5 57v41q-54 -55 -128 -92t-189 -37q-124 0 -225.5 60.5t-162.5 183t-61 300.5q0 183 71 326t200.5 222.5t299.5 79.5q96 0 186 -28l-3 61v475h220zM394.5 253.5q73.5 -96.5 212.5 -96.5q73 0 135.5 27.5t108.5 64.5v697
q-30 26 -80 38t-125 12q-93 0 -167 -52t-116 -153.5t-42 -243.5q0 -197 73.5 -293.5zM232.5 1560q23.5 36 61.5 57t77 21q68 0 104.5 -38t36.5 -97q0 -44 -23 -80t-60 -56t-79 -20q-38 0 -70 16.5t-51.5 47.5t-19.5 71q0 42 23.5 78z" />
    <glyph glyph-name="uni01F3" unicode="&#x1f3;" horiz-adv-x="2298" 
d="M1071 1664v-1680h-95q-39 0 -62.5 6t-37 25t-13.5 57v41q-54 -55 -128 -92t-189 -37q-124 0 -225.5 60.5t-162.5 183t-61 300.5q0 183 71 326t200.5 222.5t299.5 79.5q96 0 186 -28l-3 61v475h220zM394.5 253.5q73.5 -96.5 212.5 -96.5q73 0 135.5 27.5t108.5 64.5v697
q-30 26 -80 38t-125 12q-93 0 -167 -52t-116 -153.5t-42 -243.5q0 -197 73.5 -293.5zM1929 972h-550v168h812l35 -95l-550 -801l-59 -84h589v-160h-845l-42 82z" />
    <glyph glyph-name="uni01C6" unicode="&#x1c6;" horiz-adv-x="2298" 
d="M1071 1664v-1680h-95q-39 0 -62.5 6t-37 25t-13.5 57v41q-54 -55 -128 -92t-189 -37q-124 0 -225.5 60.5t-162.5 183t-61 300.5q0 183 71 326t200.5 222.5t299.5 79.5q96 0 186 -28l-3 61v475h220zM394.5 253.5q73.5 -96.5 212.5 -96.5q73 0 135.5 27.5t108.5 64.5v697
q-30 26 -80 38t-125 12q-93 0 -167 -52t-116 -153.5t-42 -243.5q0 -197 73.5 -293.5zM1929 972h-550v168h812l35 -95l-550 -801l-59 -84h589v-160h-845l-42 82zM1775 1487l232 222l135 -56l-268 -332h-198l-276 333l126 56z" />
    <glyph glyph-name="e" unicode="e" horiz-adv-x="1123" 
d="M1024 600.5q-2 -44.5 -9 -78.5h-703q1 -7 1 -20q17 -352 348 -352q60 0 152 19t132 43l42 -126q-55 -45 -167 -73.5t-218 -28.5q-161 0 -274 69.5t-172 201.5t-59 317q0 168 58.5 299t173 206.5t277.5 78.5q115 2 209 -47t150.5 -147t60.5 -236q0 -81 -2 -125.5zM822 715
q0 127 -51.5 206t-176.5 79q-111 0 -184.5 -78.5t-91.5 -253.5h502q2 32 2 47z" />
    <glyph glyph-name="eacute" unicode="&#xe9;" horiz-adv-x="1123" 
d="M488 1407q119 131 187.5 210.5t129.5 165.5l156 -135q-24 -40 -103 -120.5t-162 -150.5t-118 -83l-111 90zM1024 600.5q-2 -44.5 -9 -78.5h-703q1 -7 1 -20q17 -352 348 -352q60 0 152 19t132 43l42 -126q-55 -45 -167 -73.5t-218 -28.5q-161 0 -274 69.5t-172 201.5
t-59 317q0 168 58.5 299t173 206.5t277.5 78.5q115 2 209 -47t150.5 -147t60.5 -236q0 -81 -2 -125.5zM822 715q0 127 -51.5 206t-176.5 79q-111 0 -184.5 -78.5t-91.5 -253.5h502q2 32 2 47z" />
    <glyph glyph-name="ebreve" unicode="&#x115;" horiz-adv-x="1123" 
d="M1024 600.5q-2 -44.5 -9 -78.5h-703q1 -7 1 -20q17 -352 348 -352q60 0 152 19t132 43l42 -126q-55 -45 -167 -73.5t-218 -28.5q-161 0 -274 69.5t-172 201.5t-59 317q0 168 58.5 299t173 206.5t277.5 78.5q115 2 209 -47t150.5 -147t60.5 -236q0 -81 -2 -125.5zM822 715
q0 127 -51.5 206t-176.5 79q-111 0 -184.5 -78.5t-91.5 -253.5h502q2 32 2 47zM408 1685q1 -40 10.5 -81.5t51.5 -82.5t128 -41q120 0 154.5 68.5t37.5 136.5h150q1 -10 1 -31q0 -90 -44 -169.5t-122.5 -128t-177.5 -48.5q-104 0 -182 48t-120 127.5t-42 170.5q0 21 1 31
h154z" />
    <glyph glyph-name="ecaron" unicode="&#x11b;" horiz-adv-x="1123" 
d="M600 1487l232 222l135 -56l-268 -332h-198l-276 333l126 56zM1024 600.5q-2 -44.5 -9 -78.5h-703q1 -7 1 -20q17 -352 348 -352q60 0 152 19t132 43l42 -126q-55 -45 -167 -73.5t-218 -28.5q-161 0 -274 69.5t-172 201.5t-59 317q0 168 58.5 299t173 206.5t277.5 78.5
q115 2 209 -47t150.5 -147t60.5 -236q0 -81 -2 -125.5zM822 715q0 127 -51.5 206t-176.5 79q-111 0 -184.5 -78.5t-91.5 -253.5h502q2 32 2 47z" />
    <glyph glyph-name="ecircumflex" unicode="&#xea;" horiz-adv-x="1123" 
d="M499 1682h198l268 -332l-135 -56l-232 222l-249 -223l-126 56zM1024 600.5q-2 -44.5 -9 -78.5h-703q1 -7 1 -20q17 -352 348 -352q60 0 152 19t132 43l42 -126q-55 -45 -167 -73.5t-218 -28.5q-161 0 -274 69.5t-172 201.5t-59 317q0 168 58.5 299t173 206.5t277.5 78.5
q115 2 209 -47t150.5 -147t60.5 -236q0 -81 -2 -125.5zM822 715q0 127 -51.5 206t-176.5 79q-111 0 -184.5 -78.5t-91.5 -253.5h502q2 32 2 47z" />
    <glyph glyph-name="edieresis" unicode="&#xeb;" horiz-adv-x="1123" 
d="M248.5 1567.5q22.5 34.5 58.5 54.5t74 20q65 0 97.5 -36t32.5 -94q0 -43 -21.5 -77t-57 -53t-75.5 -19q-56 0 -93.5 35.5t-37.5 94.5q0 40 22.5 74.5zM706.5 1567.5q22.5 34.5 58.5 54.5t74 20q64 0 97 -36.5t33 -93.5q0 -43 -21.5 -77t-57 -53t-75.5 -19
q-56 0 -93.5 35.5t-37.5 94.5q0 40 22.5 74.5zM1024 600.5q-2 -44.5 -9 -78.5h-703q1 -7 1 -20q17 -352 348 -352q60 0 152 19t132 43l42 -126q-55 -45 -167 -73.5t-218 -28.5q-161 0 -274 69.5t-172 201.5t-59 317q0 168 58.5 299t173 206.5t277.5 78.5q115 2 209 -47
t150.5 -147t60.5 -236q0 -81 -2 -125.5zM822 715q0 127 -51.5 206t-176.5 79q-111 0 -184.5 -78.5t-91.5 -253.5h502q2 32 2 47z" />
    <glyph glyph-name="edotaccent" unicode="&#x117;" horiz-adv-x="1123" 
d="M1024 600.5q-2 -44.5 -9 -78.5h-703q1 -7 1 -20q17 -352 348 -352q60 0 152 19t132 43l42 -126q-55 -45 -167 -73.5t-218 -28.5q-161 0 -274 69.5t-172 201.5t-59 317q0 168 58.5 299t173 206.5t277.5 78.5q115 2 209 -47t150.5 -147t60.5 -236q0 -81 -2 -125.5zM822 715
q0 127 -51.5 206t-176.5 79q-111 0 -184.5 -78.5t-91.5 -253.5h502q2 32 2 47zM468.5 1560q23.5 36 61.5 57t77 21q68 0 104.5 -38t36.5 -97q0 -44 -23 -80t-60 -56t-79 -20q-38 0 -70 16.5t-51.5 47.5t-19.5 71q0 42 23.5 78z" />
    <glyph glyph-name="egrave" unicode="&#xe8;" horiz-adv-x="1123" 
d="M1024 600.5q-2 -44.5 -9 -78.5h-703q1 -7 1 -20q17 -352 348 -352q60 0 152 19t132 43l42 -126q-55 -45 -167 -73.5t-218 -28.5q-161 0 -274 69.5t-172 201.5t-59 317q0 168 58.5 299t173 206.5t277.5 78.5q115 2 209 -47t150.5 -147t60.5 -236q0 -81 -2 -125.5zM822 715
q0 127 -51.5 206t-176.5 79q-111 0 -184.5 -78.5t-91.5 -253.5h502q2 32 2 47zM477 1378.5q-80 66.5 -156.5 143.5t-108.5 126l157 135q97 -125 306 -362l32 -37l-111 -90q-39 18 -119 84.5z" />
    <glyph glyph-name="emacron" unicode="&#x113;" horiz-adv-x="1123" 
d="M1024 600.5q-2 -44.5 -9 -78.5h-703q1 -7 1 -20q17 -352 348 -352q60 0 152 19t132 43l42 -126q-55 -45 -167 -73.5t-218 -28.5q-161 0 -274 69.5t-172 201.5t-59 317q0 168 58.5 299t173 206.5t277.5 78.5q115 2 209 -47t150.5 -147t60.5 -236q0 -81 -2 -125.5zM822 715
q0 127 -51.5 206t-176.5 79q-111 0 -184.5 -78.5t-91.5 -253.5h502q2 32 2 47zM872 1588v-163h-547v163h547z" />
    <glyph glyph-name="eogonek" unicode="&#x119;" horiz-adv-x="1123" 
d="M1024 600.5q-2 -44.5 -9 -78.5h-703q1 -7 1 -20q17 -352 348 -352q60 0 152 19t132 43l42 -126l-16 -12h1q-68 -43 -122 -101.5t-84.5 -119.5t-30.5 -109q0 -62 33.5 -85t94.5 -23q64 0 139 29v-118q-40 -30 -104 -44.5t-133 -14.5q-110 0 -178 56.5t-68 158.5
q0 47 25.5 102t69.5 105t97 82q-59 -8 -109 -8q-161 0 -274 69.5t-172 201.5t-59 317q0 168 58.5 299t173 206.5t277.5 78.5q115 2 209 -47t150.5 -147t60.5 -236q0 -81 -2 -125.5zM822 715q0 127 -51.5 206t-176.5 79q-111 0 -184.5 -78.5t-91.5 -253.5h502q2 32 2 47z" />
    <glyph glyph-name="f" unicode="f" horiz-adv-x="811" 
d="M75 974v122l173 44v99q0 160 61.5 259t155.5 141.5t196 42.5q42 0 82 -7t60 -15v-174q-32 11 -69.5 15.5t-102.5 4.5q-74 0 -118.5 -56t-44.5 -161v-149h282v-166h-282v-974h-220v974h-173z" />
    <glyph glyph-name="uni1E1F" unicode="&#x1e1f;" horiz-adv-x="811" 
d="M248.5 1916q23.5 36 61.5 57t77 21q68 0 104.5 -38t36.5 -97q0 -44 -23 -80t-60 -56t-79 -20q-38 0 -70 16.5t-51.5 47.5t-19.5 71q0 42 23.5 78zM75 974v122l173 44v99q0 160 61.5 259t155.5 141.5t196 42.5q42 0 82 -7t60 -15v-174q-32 11 -69.5 15.5t-102.5 4.5
q-74 0 -118.5 -56t-44.5 -161v-149h282v-166h-282v-974h-220v974h-173z" />
    <glyph glyph-name="g" unicode="g" 
d="M1187 973h-209q51 -86 51 -198q0 -123 -60 -211.5t-164 -134t-235 -45.5q-68 0 -124 13q-28 -19 -46 -50t-18 -64q0 -63 28.5 -86.5t101.5 -23.5h207q237 0 328.5 -88.5t91.5 -229.5q0 -111 -74 -195.5t-199.5 -130.5t-277.5 -46q-225 0 -351.5 84t-126.5 252
q0 78 47 138t112 96q-88 51 -88 165q0 58 37.5 119.5t102.5 105.5q-92 49 -144.5 132t-52.5 187q0 131 60 219.5t164.5 131.5t238.5 43q163 0 276 -69q38 26 96 43.5t117 17.5h111v-175zM750.5 584q59.5 53 59.5 183q0 118 -56 179t-169 61q-110 0 -176 -51.5t-66 -183.5
q0 -105 57.5 -173t174.5 -68q116 0 175.5 53zM397 7q-34 -30 -53.5 -67t-19.5 -95q0 -107 63.5 -159t205.5 -52q91 0 167.5 20t122.5 59t46 94q0 66 -23.5 107.5t-85 63.5t-173.5 22h-102q-91 0 -148 7z" />
    <glyph glyph-name="gbreve" unicode="&#x11f;" 
d="M1187 973h-209q51 -86 51 -198q0 -123 -60 -211.5t-164 -134t-235 -45.5q-68 0 -124 13q-28 -19 -46 -50t-18 -64q0 -63 28.5 -86.5t101.5 -23.5h207q237 0 328.5 -88.5t91.5 -229.5q0 -111 -74 -195.5t-199.5 -130.5t-277.5 -46q-225 0 -351.5 84t-126.5 252
q0 78 47 138t112 96q-88 51 -88 165q0 58 37.5 119.5t102.5 105.5q-92 49 -144.5 132t-52.5 187q0 131 60 219.5t164.5 131.5t238.5 43q163 0 276 -69q38 26 96 43.5t117 17.5h111v-175zM750.5 584q59.5 53 59.5 183q0 118 -56 179t-169 61q-110 0 -176 -51.5t-66 -183.5
q0 -105 57.5 -173t174.5 -68q116 0 175.5 53zM397 7q-34 -30 -53.5 -67t-19.5 -95q0 -107 63.5 -159t205.5 -52q91 0 167.5 20t122.5 59t46 94q0 66 -23.5 107.5t-85 63.5t-173.5 22h-102q-91 0 -148 7zM408 1685q1 -40 10.5 -81.5t51.5 -82.5t128 -41q120 0 154.5 68.5
t37.5 136.5h150q1 -10 1 -31q0 -90 -44 -169.5t-122.5 -128t-177.5 -48.5q-104 0 -182 48t-120 127.5t-42 170.5q0 21 1 31h154z" />
    <glyph glyph-name="gcaron" unicode="&#x1e7;" 
d="M1187 973h-209q51 -86 51 -198q0 -123 -60 -211.5t-164 -134t-235 -45.5q-68 0 -124 13q-28 -19 -46 -50t-18 -64q0 -63 28.5 -86.5t101.5 -23.5h207q237 0 328.5 -88.5t91.5 -229.5q0 -111 -74 -195.5t-199.5 -130.5t-277.5 -46q-225 0 -351.5 84t-126.5 252
q0 78 47 138t112 96q-88 51 -88 165q0 58 37.5 119.5t102.5 105.5q-92 49 -144.5 132t-52.5 187q0 131 60 219.5t164.5 131.5t238.5 43q163 0 276 -69q38 26 96 43.5t117 17.5h111v-175zM750.5 584q59.5 53 59.5 183q0 118 -56 179t-169 61q-110 0 -176 -51.5t-66 -183.5
q0 -105 57.5 -173t174.5 -68q116 0 175.5 53zM397 7q-34 -30 -53.5 -67t-19.5 -95q0 -107 63.5 -159t205.5 -52q91 0 167.5 20t122.5 59t46 94q0 66 -23.5 107.5t-85 63.5t-173.5 22h-102q-91 0 -148 7zM600 1487l232 222l135 -56l-268 -332h-198l-276 333l126 56z" />
    <glyph glyph-name="gcircumflex" unicode="&#x11d;" 
d="M499 1682h198l268 -332l-135 -56l-232 222l-249 -223l-126 56zM1187 973h-209q51 -86 51 -198q0 -123 -60 -211.5t-164 -134t-235 -45.5q-68 0 -124 13q-28 -19 -46 -50t-18 -64q0 -63 28.5 -86.5t101.5 -23.5h207q237 0 328.5 -88.5t91.5 -229.5q0 -111 -74 -195.5
t-199.5 -130.5t-277.5 -46q-225 0 -351.5 84t-126.5 252q0 78 47 138t112 96q-88 51 -88 165q0 58 37.5 119.5t102.5 105.5q-92 49 -144.5 132t-52.5 187q0 131 60 219.5t164.5 131.5t238.5 43q163 0 276 -69q38 26 96 43.5t117 17.5h111v-175zM750.5 584q59.5 53 59.5 183
q0 118 -56 179t-169 61q-110 0 -176 -51.5t-66 -183.5q0 -105 57.5 -173t174.5 -68q116 0 175.5 53zM397 7q-34 -30 -53.5 -67t-19.5 -95q0 -107 63.5 -159t205.5 -52q91 0 167.5 20t122.5 59t46 94q0 66 -23.5 107.5t-85 63.5t-173.5 22h-102q-91 0 -148 7z" />
    <glyph glyph-name="gcommaaccent" unicode="&#x123;" 
d="M499.5 1400q-28.5 57 -28.5 136q0 65 24 120.5t59 93t69 52.5l75 -41v-26q-16 -19 -27.5 -59t-11.5 -86q0 -41 19 -79.5t48 -44.5v-50l-158 -92q-40 19 -68.5 76zM1187 973h-209q51 -86 51 -198q0 -123 -60 -211.5t-164 -134t-235 -45.5q-68 0 -124 13q-28 -19 -46 -50
t-18 -64q0 -63 28.5 -86.5t101.5 -23.5h207q237 0 328.5 -88.5t91.5 -229.5q0 -111 -74 -195.5t-199.5 -130.5t-277.5 -46q-225 0 -351.5 84t-126.5 252q0 78 47 138t112 96q-88 51 -88 165q0 58 37.5 119.5t102.5 105.5q-92 49 -144.5 132t-52.5 187q0 131 60 219.5
t164.5 131.5t238.5 43q163 0 276 -69q38 26 96 43.5t117 17.5h111v-175zM750.5 584q59.5 53 59.5 183q0 118 -56 179t-169 61q-110 0 -176 -51.5t-66 -183.5q0 -105 57.5 -173t174.5 -68q116 0 175.5 53zM397 7q-34 -30 -53.5 -67t-19.5 -95q0 -107 63.5 -159t205.5 -52
q91 0 167.5 20t122.5 59t46 94q0 66 -23.5 107.5t-85 63.5t-173.5 22h-102q-91 0 -148 7z" />
    <glyph glyph-name="gdotaccent" unicode="&#x121;" 
d="M1187 973h-209q51 -86 51 -198q0 -123 -60 -211.5t-164 -134t-235 -45.5q-68 0 -124 13q-28 -19 -46 -50t-18 -64q0 -63 28.5 -86.5t101.5 -23.5h207q237 0 328.5 -88.5t91.5 -229.5q0 -111 -74 -195.5t-199.5 -130.5t-277.5 -46q-225 0 -351.5 84t-126.5 252
q0 78 47 138t112 96q-88 51 -88 165q0 58 37.5 119.5t102.5 105.5q-92 49 -144.5 132t-52.5 187q0 131 60 219.5t164.5 131.5t238.5 43q163 0 276 -69q38 26 96 43.5t117 17.5h111v-175zM750.5 584q59.5 53 59.5 183q0 118 -56 179t-169 61q-110 0 -176 -51.5t-66 -183.5
q0 -105 57.5 -173t174.5 -68q116 0 175.5 53zM397 7q-34 -30 -53.5 -67t-19.5 -95q0 -107 63.5 -159t205.5 -52q91 0 167.5 20t122.5 59t46 94q0 66 -23.5 107.5t-85 63.5t-173.5 22h-102q-91 0 -148 7zM468.5 1560q23.5 36 61.5 57t77 21q68 0 104.5 -38t36.5 -97
q0 -44 -23 -80t-60 -56t-79 -20q-38 0 -70 16.5t-51.5 47.5t-19.5 71q0 42 23.5 78z" />
    <glyph glyph-name="uni1E21" unicode="&#x1e21;" 
d="M1187 973h-209q51 -86 51 -198q0 -123 -60 -211.5t-164 -134t-235 -45.5q-68 0 -124 13q-28 -19 -46 -50t-18 -64q0 -63 28.5 -86.5t101.5 -23.5h207q237 0 328.5 -88.5t91.5 -229.5q0 -111 -74 -195.5t-199.5 -130.5t-277.5 -46q-225 0 -351.5 84t-126.5 252
q0 78 47 138t112 96q-88 51 -88 165q0 58 37.5 119.5t102.5 105.5q-92 49 -144.5 132t-52.5 187q0 131 60 219.5t164.5 131.5t238.5 43q163 0 276 -69q38 26 96 43.5t117 17.5h111v-175zM750.5 584q59.5 53 59.5 183q0 118 -56 179t-169 61q-110 0 -176 -51.5t-66 -183.5
q0 -105 57.5 -173t174.5 -68q116 0 175.5 53zM397 7q-34 -30 -53.5 -67t-19.5 -95q0 -107 63.5 -159t205.5 -52q91 0 167.5 20t122.5 59t46 94q0 66 -23.5 107.5t-85 63.5t-173.5 22h-102q-91 0 -148 7zM872 1588v-163h-547v163h547z" />
    <glyph glyph-name="h" unicode="h" horiz-adv-x="1289" 
d="M976.5 1109.5q73.5 -47.5 108 -149t34.5 -265.5v-695h-220v711q0 97 -19.5 155t-68 84.5t-134.5 22.5q-60 -2 -138 -29.5t-143 -74.5v-869h-220v1664h220v-475l-10 -161q74 53 184.5 91t213.5 38q119 0 192.5 -47.5z" />
    <glyph glyph-name="hbar" unicode="&#x127;" horiz-adv-x="1289" 
d="M976.5 1109.5q73.5 -47.5 108 -149t34.5 -265.5v-695h-220v711q0 97 -19.5 155t-68 84.5t-134.5 22.5q-60 -2 -138 -29.5t-143 -74.5v-869h-220v1284h-140v132h140v248h220v-248h232v-132h-232v-95l-10 -161q74 53 184.5 91t213.5 38q119 0 192.5 -47.5z" />
    <glyph glyph-name="hcircumflex" unicode="&#x125;" horiz-adv-x="1289" 
d="M976.5 1109.5q73.5 -47.5 108 -149t34.5 -265.5v-695h-220v711q0 97 -19.5 155t-68 84.5t-134.5 22.5q-60 -2 -138 -29.5t-143 -74.5v-869h-220v1664h220v-475l-10 -161q74 53 184.5 91t213.5 38q119 0 192.5 -47.5zM655 1990h197l262 -298l-144 -60l-216 202l-221 -202
l-137 57z" />
    <glyph glyph-name="i" unicode="i" horiz-adv-x="606" 
d="M413 1138v-1138h-220v1138h220zM174.5 1560q23.5 36 61.5 57t77 21q68 0 104.5 -38t36.5 -97q0 -44 -23 -80t-60 -56t-79 -20q-38 0 -70 16.5t-51.5 47.5t-19.5 71q0 42 23.5 78z" />
    <glyph glyph-name="dotlessi" unicode="&#x131;" horiz-adv-x="606" 
d="M413 1138v-1138h-220v1138h220z" />
    <glyph glyph-name="iacute" unicode="&#xed;" horiz-adv-x="606" 
d="M194 1407q119 131 187.5 210.5t129.5 165.5l156 -135q-24 -40 -103 -120.5t-162 -150.5t-118 -83l-111 90zM413 1138v-1138h-220v1138h220z" />
    <glyph glyph-name="ibreve" unicode="&#x12d;" horiz-adv-x="606" 
d="M413 1138v-1138h-220v1138h220zM114 1685q1 -40 10.5 -81.5t51.5 -82.5t128 -41q120 0 154.5 68.5t37.5 136.5h150q1 -10 1 -31q0 -90 -44 -169.5t-122.5 -128t-177.5 -48.5q-104 0 -182 48t-120 127.5t-42 170.5q0 21 1 31h154z" />
    <glyph glyph-name="uni01D0" unicode="&#x1d0;" horiz-adv-x="606" 
d="M306 1487l232 222l135 -56l-268 -332h-198l-276 333l126 56zM413 1138v-1138h-220v1138h220z" />
    <glyph glyph-name="icircumflex" unicode="&#xee;" horiz-adv-x="606" 
d="M205 1682h198l268 -332l-135 -56l-232 222l-249 -223l-126 56zM413 1138v-1138h-220v1138h220z" />
    <glyph glyph-name="idieresis" unicode="&#xef;" horiz-adv-x="606" 
d="M-33.5 1567.5q22.5 34.5 58.5 54.5t74 20q65 0 97.5 -36t32.5 -94q0 -43 -21.5 -77t-57 -53t-75.5 -19q-56 0 -93.5 35.5t-37.5 94.5q0 40 22.5 74.5zM400.5 1567.5q22.5 34.5 58.5 54.5t74 20q64 0 97 -36.5t33 -93.5q0 -43 -21.5 -77t-57 -53t-75.5 -19
q-56 0 -93.5 35.5t-37.5 94.5q0 40 22.5 74.5zM413 1138v-1138h-220v1138h220z" />
    <glyph glyph-name="igrave" unicode="&#xec;" horiz-adv-x="606" 
d="M413 1138v-1138h-220v1138h220zM183 1378.5q-80 66.5 -156.5 143.5t-108.5 126l157 135q97 -125 306 -362l32 -37l-111 -90q-39 18 -119 84.5z" />
    <glyph glyph-name="ij" unicode="&#x133;" horiz-adv-x="1180" 
d="M413 1138v-1138h-220v1138h220zM174.5 1560q23.5 36 61.5 57t77 21q68 0 104.5 -38t36.5 -97q0 -44 -23 -80t-60 -56t-79 -20q-38 0 -70 16.5t-51.5 47.5t-19.5 71q0 42 23.5 78zM581 -346q38 -7 63 -7q87 0 121 74t34 231v1186h220v-1101q0 -287 -88.5 -415.5
t-264.5 -128.5q-33 0 -81 3.5t-58 9.5v163q16 -8 54 -15zM784.5 1560q23.5 36 61.5 57t77 21q68 0 104.5 -38t36.5 -97q0 -44 -23 -80t-60 -56t-79 -20q-38 0 -70 16.5t-51.5 47.5t-19.5 71q0 42 23.5 78z" />
    <glyph glyph-name="imacron" unicode="&#x12b;" horiz-adv-x="606" 
d="M413 1138v-1138h-220v1138h220zM578 1588v-163h-547v163h547z" />
    <glyph glyph-name="iogonek" unicode="&#x12f;" horiz-adv-x="606" 
d="M225 1363.5q-32 16.5 -51.5 47.5t-19.5 71q0 42 23.5 78t61.5 57t77 21q68 0 104.5 -38t36.5 -97q0 -44 -23 -80t-60 -56t-79 -20q-38 0 -70 16.5zM516 -335v-118q-41 -31 -100 -45t-127 -14q-76 0 -136.5 27t-95 78t-34.5 119q0 82 58 160t140 128h-28v1138h220v-1138
h-25q-149 -95 -149 -242q0 -64 39 -93t99 -29q64 0 139 29z" />
    <glyph glyph-name="itilde" unicode="&#x129;" horiz-adv-x="606" 
d="M413 1138v-1138h-220v1138h220zM-52 1549.5q41 44.5 94.5 71.5t111.5 27q59 0 98.5 -20.5t84.5 -59.5q34 -29 57.5 -43t54.5 -14q60 0 100.5 26t82.5 72l86 -72q-41 -85 -112 -139t-158 -54q-64 0 -103.5 21.5t-83.5 60.5q-33 29 -55.5 42.5t-53.5 13.5
q-54 0 -98.5 -27.5t-84.5 -69.5l-85 68q23 52 64 96.5z" />
    <glyph glyph-name="j" unicode="j" horiz-adv-x="574" 
d="M-25 -346q38 -7 63 -7q87 0 121 74t34 231v1186h220v-1101q0 -287 -88.5 -415.5t-264.5 -128.5q-33 0 -81 3.5t-58 9.5v163q16 -8 54 -15zM178.5 1560q23.5 36 61.5 57t77 21q68 0 104.5 -38t36.5 -97q0 -44 -23 -80t-60 -56t-79 -20q-38 0 -70 16.5t-51.5 47.5t-19.5 71
q0 42 23.5 78z" />
    <glyph glyph-name="uni0237" unicode="&#x237;" horiz-adv-x="574" 
d="M-25 -346q38 -7 63 -7q87 0 121 74t34 231v1186h220v-1101q0 -287 -88.5 -415.5t-264.5 -128.5q-33 0 -81 3.5t-58 9.5v163q16 -8 54 -15z" />
    <glyph glyph-name="jcircumflex" unicode="&#x135;" horiz-adv-x="574" 
d="M-25 -346q38 -7 63 -7q87 0 121 74t34 231v1186h220v-1101q0 -287 -88.5 -415.5t-264.5 -128.5q-33 0 -81 3.5t-58 9.5v163q16 -8 54 -15zM209 1682h198l268 -332l-135 -56l-232 222l-249 -223l-126 56z" />
    <glyph glyph-name="k" unicode="k" horiz-adv-x="1163" 
d="M524 542l-141 -148l5 -171v-223h-220v1661h220v-910l-4 -112l455 501h259l-430 -449l483 -691h-250z" />
    <glyph glyph-name="kcommaaccent" unicode="&#x137;" horiz-adv-x="1163" 
d="M521 -493q16 19 27.5 59t11.5 86q0 41 -19 79.5t-48 44.5v50l158 92q40 -19 68.5 -76t28.5 -136q0 -65 -24 -120.5t-59 -93t-69 -52.5l-75 41v26zM524 542l-141 -148l5 -171v-223h-220v1661h220v-910l-4 -112l455 501h259l-430 -449l483 -691h-250z" />
    <glyph glyph-name="kgreenlandic" unicode="&#x138;" horiz-adv-x="1169" 
d="M551 504l-153 -168l6 -146v-190h-220l-3 1140h220v-481l-3 -80l480 561h251l-439 -482l478 -658h-251z" />
    <glyph glyph-name="l" unicode="l" horiz-adv-x="613" 
d="M417 1664v-1664h-220v1664h220z" />
    <glyph glyph-name="lacute" unicode="&#x13a;" horiz-adv-x="631" 
d="M382 1843.5q142 128.5 145 136.5l146 -133q-74 -76 -194 -160.5t-202 -113.5l-93 92q56 50 198 178.5zM417 1532v-1532h-220v1532h220z" />
    <glyph glyph-name="lcaron" unicode="&#x13e;" horiz-adv-x="790" 
d="M417 1664v-1664h-220v1664h220zM570 1096l12 41q18 57 27 107.5t9 138.5q0 56 -17.5 116.5t-37.5 85.5l14 47l176 55q31 -28 46.5 -92.5t15.5 -148.5q0 -125 -37 -237t-90 -175l-110 34z" />
    <glyph glyph-name="lcommaaccent" unicode="&#x13c;" horiz-adv-x="613" 
d="M202 -493q16 19 27.5 59t11.5 86q0 41 -19 79.5t-48 44.5v50l158 92q40 -19 68.5 -76t28.5 -136q0 -65 -24 -120.5t-59 -93t-69 -52.5l-75 41v26zM417 1664v-1664h-220v1664h220z" />
    <glyph glyph-name="ldot" unicode="&#x140;" horiz-adv-x="1026" 
d="M417 1664v-1664h-220v1664h220zM695 929q23 39 60 62.5t78 23.5q70 0 108.5 -45t38.5 -111q0 -47 -22.5 -86t-60 -61.5t-79.5 -22.5q-38 0 -72 20.5t-54 56t-20 78.5q0 46 23 85z" />
    <glyph glyph-name="uni01C9" unicode="&#x1c9;" horiz-adv-x="1187" 
d="M417 1664v-1664h-220v1664h220zM588 -346q38 -7 63 -7q87 0 121 74t34 231v1186h220v-1101q0 -287 -88.5 -415.5t-264.5 -128.5q-33 0 -81 3.5t-58 9.5v163q16 -8 54 -15zM791.5 1560q23.5 36 61.5 57t77 21q68 0 104.5 -38t36.5 -97q0 -44 -23 -80t-60 -56t-79 -20
q-38 0 -70 16.5t-51.5 47.5t-19.5 71q0 42 23.5 78z" />
    <glyph glyph-name="lslash" unicode="&#x142;" horiz-adv-x="613" 
d="M596 990l-179 -69v-921h-220v837l-167 -64v151l167 67v673h220v-585l179 72v-161z" />
    <glyph glyph-name="m" unicode="m" horiz-adv-x="1972" 
d="M1664 1114q71 -43 104.5 -139.5t33.5 -260.5v-714h-220v711q0 100 -16 156.5t-61 83t-131 22.5q-61 -2 -138 -29.5t-141 -72.5q9 -69 9 -157v-714h-220v711q0 100 -16.5 156.5t-61.5 83t-130 22.5q-59 -2 -137.5 -29.5t-142.5 -74.5v-869h-220v1138h196l1 -120
q77 52 183.5 94t208.5 45q113 3 183.5 -30.5t107.5 -111.5q76 57 192.5 99.5t225.5 42.5q119 0 190 -43z" />
    <glyph glyph-name="uni1E41" unicode="&#x1e41;" horiz-adv-x="1972" 
d="M1664 1114q71 -43 104.5 -139.5t33.5 -260.5v-714h-220v711q0 100 -16 156.5t-61 83t-131 22.5q-61 -2 -138 -29.5t-141 -72.5q9 -69 9 -157v-714h-220v711q0 100 -16.5 156.5t-61.5 83t-130 22.5q-59 -2 -137.5 -29.5t-142.5 -74.5v-869h-220v1138h196l1 -120
q77 52 183.5 94t208.5 45q113 3 183.5 -30.5t107.5 -111.5q76 57 192.5 99.5t225.5 42.5q119 0 190 -43zM867.5 1560q23.5 36 61.5 57t77 21q68 0 104.5 -38t36.5 -97q0 -44 -23 -80t-60 -56t-79 -20q-38 0 -70 16.5t-51.5 47.5t-19.5 71q0 42 23.5 78z" />
    <glyph glyph-name="n" unicode="n" horiz-adv-x="1279" 
d="M372 1138l1 -120q78 53 193.5 96t220.5 43q118 0 188 -44t102 -141t32 -262v-710h-220v711q0 96 -15 152.5t-55 84.5t-116 28q-18 0 -27 -1q-60 -2 -137.5 -30.5t-142.5 -75.5v-869h-220v1138h196z" />
    <glyph glyph-name="nacute" unicode="&#x144;" horiz-adv-x="1279" 
d="M601 1407q119 131 187.5 210.5t129.5 165.5l156 -135q-24 -40 -103 -120.5t-162 -150.5t-118 -83l-111 90zM372 1138l1 -120q78 53 193.5 96t220.5 43q118 0 188 -44t102 -141t32 -262v-710h-220v711q0 96 -15 152.5t-55 84.5t-116 28q-18 0 -27 -1q-60 -2 -137.5 -30.5
t-142.5 -75.5v-869h-220v1138h196z" />
    <glyph glyph-name="napostrophe" unicode="&#x149;" horiz-adv-x="1279" 
d="M566 -493q16 19 27.5 59t11.5 86q0 41 -19 79.5t-48 44.5v50l158 92q40 -19 68.5 -76t28.5 -136q0 -65 -24 -120.5t-59 -93t-69 -52.5l-75 41v26zM372 1138l1 -120q78 53 193.5 96t220.5 43q118 0 188 -44t102 -141t32 -262v-710h-220v711q0 96 -15 152.5t-55 84.5
t-116 28q-18 0 -27 -1q-60 -2 -137.5 -30.5t-142.5 -75.5v-869h-220v1138h196z" />
    <glyph glyph-name="ncaron" unicode="&#x148;" horiz-adv-x="1279" 
d="M713 1487l232 222l135 -56l-268 -332h-198l-276 333l126 56zM372 1138l1 -120q78 53 193.5 96t220.5 43q118 0 188 -44t102 -141t32 -262v-710h-220v711q0 96 -15 152.5t-55 84.5t-116 28q-18 0 -27 -1q-60 -2 -137.5 -30.5t-142.5 -75.5v-869h-220v1138h196z" />
    <glyph glyph-name="ncommaaccent" unicode="&#x146;" horiz-adv-x="1279" 
d="M566 -493q16 19 27.5 59t11.5 86q0 41 -19 79.5t-48 44.5v50l158 92q40 -19 68.5 -76t28.5 -136q0 -65 -24 -120.5t-59 -93t-69 -52.5l-75 41v26zM372 1138l1 -120q78 53 193.5 96t220.5 43q118 0 188 -44t102 -141t32 -262v-710h-220v711q0 96 -15 152.5t-55 84.5
t-116 28q-18 0 -27 -1q-60 -2 -137.5 -30.5t-142.5 -75.5v-869h-220v1138h196z" />
    <glyph glyph-name="uni1E45" unicode="&#x1e45;" horiz-adv-x="1279" 
d="M372 1138l1 -120q78 53 193.5 96t220.5 43q118 0 188 -44t102 -141t32 -262v-710h-220v711q0 96 -15 152.5t-55 84.5t-116 28q-18 0 -27 -1q-60 -2 -137.5 -30.5t-142.5 -75.5v-869h-220v1138h196zM581.5 1560q23.5 36 61.5 57t77 21q68 0 104.5 -38t36.5 -97
q0 -44 -23 -80t-60 -56t-79 -20q-38 0 -70 16.5t-51.5 47.5t-19.5 71q0 42 23.5 78z" />
    <glyph glyph-name="eng" unicode="&#x14b;" horiz-adv-x="1279" 
d="M371 1138l1 -120q75 51 185.5 93.5t212.5 45.5q125 3 198 -38.5t106.5 -138.5t34.5 -266v-730q0 -240 -80 -365.5t-237 -125.5q-34 0 -88 4.5t-66 9.5v152q14 -5 50 -8t58 -3q59 0 89.5 27.5t42 92t11.5 187.5v756q0 100 -16.5 156.5t-61.5 83t-130 22.5
q-60 -2 -140.5 -30t-144.5 -74v-869h-220v1138h195z" />
    <glyph glyph-name="uni01CC" unicode="&#x1cc;" horiz-adv-x="1853" 
d="M372 1138l1 -120q78 53 193.5 96t220.5 43q118 0 188 -44t102 -141t32 -262v-710h-220v711q0 96 -15 152.5t-55 84.5t-116 28q-18 0 -27 -1q-60 -2 -137.5 -30.5t-142.5 -75.5v-869h-220v1138h196zM1254 -346q38 -7 63 -7q87 0 121 74t34 231v1186h220v-1101
q0 -287 -88.5 -415.5t-264.5 -128.5q-33 0 -81 3.5t-58 9.5v163q16 -8 54 -15zM1457.5 1560q23.5 36 61.5 57t77 21q68 0 104.5 -38t36.5 -97q0 -44 -23 -80t-60 -56t-79 -20q-38 0 -70 16.5t-51.5 47.5t-19.5 71q0 42 23.5 78z" />
    <glyph glyph-name="ntilde" unicode="&#xf1;" horiz-adv-x="1279" 
d="M372 1138l1 -120q78 53 193.5 96t220.5 43q118 0 188 -44t102 -141t32 -262v-710h-220v711q0 96 -15 152.5t-55 84.5t-116 28q-18 0 -27 -1q-60 -2 -137.5 -30.5t-142.5 -75.5v-869h-220v1138h196zM355 1549.5q41 44.5 94.5 71.5t111.5 27q59 0 98.5 -20.5t84.5 -59.5
q34 -29 57.5 -43t54.5 -14q60 0 100.5 26t82.5 72l86 -72q-41 -85 -112 -139t-158 -54q-64 0 -103.5 21.5t-83.5 60.5q-33 29 -55.5 42.5t-53.5 13.5q-54 0 -98.5 -27.5t-84.5 -69.5l-85 68q23 52 64 96.5z" />
    <glyph glyph-name="o" unicode="o" horiz-adv-x="1213" 
d="M163 892.5q67 129.5 185 196.5t268 67q173 0 285 -80t164 -214t52 -302q0 -183 -67 -313t-185 -196.5t-269 -66.5q-172 0 -284 80t-164 214t-52 302q0 183 67 312.5zM862.5 783.5q-31.5 99.5 -96.5 157t-163 57.5q-139 0 -211.5 -105.5t-72.5 -301.5q0 -127 32 -229.5
t97 -162t161 -59.5q139 0 212 109t73 307q0 128 -31.5 227.5z" />
    <glyph glyph-name="oacute" unicode="&#xf3;" horiz-adv-x="1213" 
d="M507 1407q119 131 187.5 210.5t129.5 165.5l156 -135q-24 -40 -103 -120.5t-162 -150.5t-118 -83l-111 90zM163 892.5q67 129.5 185 196.5t268 67q173 0 285 -80t164 -214t52 -302q0 -183 -67 -313t-185 -196.5t-269 -66.5q-172 0 -284 80t-164 214t-52 302
q0 183 67 312.5zM862.5 783.5q-31.5 99.5 -96.5 157t-163 57.5q-139 0 -211.5 -105.5t-72.5 -301.5q0 -127 32 -229.5t97 -162t161 -59.5q139 0 212 109t73 307q0 128 -31.5 227.5z" />
    <glyph glyph-name="obreve" unicode="&#x14f;" horiz-adv-x="1213" 
d="M163 892.5q67 129.5 185 196.5t268 67q173 0 285 -80t164 -214t52 -302q0 -183 -67 -313t-185 -196.5t-269 -66.5q-172 0 -284 80t-164 214t-52 302q0 183 67 312.5zM862.5 783.5q-31.5 99.5 -96.5 157t-163 57.5q-139 0 -211.5 -105.5t-72.5 -301.5q0 -127 32 -229.5
t97 -162t161 -59.5q139 0 212 109t73 307q0 128 -31.5 227.5zM427 1685q1 -40 10.5 -81.5t51.5 -82.5t128 -41q120 0 154.5 68.5t37.5 136.5h150q1 -10 1 -31q0 -90 -44 -169.5t-122.5 -128t-177.5 -48.5q-104 0 -182 48t-120 127.5t-42 170.5q0 21 1 31h154z" />
    <glyph glyph-name="uni01D2" unicode="&#x1d2;" horiz-adv-x="1213" 
d="M163 892.5q67 129.5 185 196.5t268 67q173 0 285 -80t164 -214t52 -302q0 -183 -67 -313t-185 -196.5t-269 -66.5q-172 0 -284 80t-164 214t-52 302q0 183 67 312.5zM862.5 783.5q-31.5 99.5 -96.5 157t-163 57.5q-139 0 -211.5 -105.5t-72.5 -301.5q0 -127 32 -229.5
t97 -162t161 -59.5q139 0 212 109t73 307q0 128 -31.5 227.5zM619 1487l232 222l135 -56l-268 -332h-198l-276 333l126 56z" />
    <glyph glyph-name="ocircumflex" unicode="&#xf4;" horiz-adv-x="1213" 
d="M518 1682h198l268 -332l-135 -56l-232 222l-249 -223l-126 56zM163 892.5q67 129.5 185 196.5t268 67q173 0 285 -80t164 -214t52 -302q0 -183 -67 -313t-185 -196.5t-269 -66.5q-172 0 -284 80t-164 214t-52 302q0 183 67 312.5zM862.5 783.5q-31.5 99.5 -96.5 157
t-163 57.5q-139 0 -211.5 -105.5t-72.5 -301.5q0 -127 32 -229.5t97 -162t161 -59.5q139 0 212 109t73 307q0 128 -31.5 227.5z" />
    <glyph glyph-name="odieresis" unicode="&#xf6;" horiz-adv-x="1213" 
d="M267.5 1567.5q22.5 34.5 58.5 54.5t74 20q65 0 97.5 -36t32.5 -94q0 -43 -21.5 -77t-57 -53t-75.5 -19q-56 0 -93.5 35.5t-37.5 94.5q0 40 22.5 74.5zM725.5 1567.5q22.5 34.5 58.5 54.5t74 20q64 0 97 -36.5t33 -93.5q0 -43 -21.5 -77t-57 -53t-75.5 -19
q-56 0 -93.5 35.5t-37.5 94.5q0 40 22.5 74.5zM163 892.5q67 129.5 185 196.5t268 67q173 0 285 -80t164 -214t52 -302q0 -183 -67 -313t-185 -196.5t-269 -66.5q-172 0 -284 80t-164 214t-52 302q0 183 67 312.5zM862.5 783.5q-31.5 99.5 -96.5 157t-163 57.5
q-139 0 -211.5 -105.5t-72.5 -301.5q0 -127 32 -229.5t97 -162t161 -59.5q139 0 212 109t73 307q0 128 -31.5 227.5z" />
    <glyph glyph-name="ograve" unicode="&#xf2;" horiz-adv-x="1213" 
d="M163 892.5q67 129.5 185 196.5t268 67q173 0 285 -80t164 -214t52 -302q0 -183 -67 -313t-185 -196.5t-269 -66.5q-172 0 -284 80t-164 214t-52 302q0 183 67 312.5zM862.5 783.5q-31.5 99.5 -96.5 157t-163 57.5q-139 0 -211.5 -105.5t-72.5 -301.5q0 -127 32 -229.5
t97 -162t161 -59.5q139 0 212 109t73 307q0 128 -31.5 227.5zM496 1378.5q-80 66.5 -156.5 143.5t-108.5 126l157 135q97 -125 306 -362l32 -37l-111 -90q-39 18 -119 84.5z" />
    <glyph glyph-name="ohungarumlaut" unicode="&#x151;" horiz-adv-x="1213" 
d="M502 1826l162 -111q-30 -51 -91.5 -129t-125.5 -146t-101 -93l-103 71zM1009 1817l155 -110q-25 -48 -87 -125t-128.5 -144.5t-105.5 -90.5l-101 71zM163 892.5q67 129.5 185 196.5t268 67q173 0 285 -80t164 -214t52 -302q0 -183 -67 -313t-185 -196.5t-269 -66.5
q-172 0 -284 80t-164 214t-52 302q0 183 67 312.5zM862.5 783.5q-31.5 99.5 -96.5 157t-163 57.5q-139 0 -211.5 -105.5t-72.5 -301.5q0 -127 32 -229.5t97 -162t161 -59.5q139 0 212 109t73 307q0 128 -31.5 227.5z" />
    <glyph glyph-name="omacron" unicode="&#x14d;" horiz-adv-x="1213" 
d="M891 1588v-163h-547v163h547zM163 892.5q67 129.5 185 196.5t268 67q173 0 285 -80t164 -214t52 -302q0 -183 -67 -313t-185 -196.5t-269 -66.5q-172 0 -284 80t-164 214t-52 302q0 183 67 312.5zM862.5 783.5q-31.5 99.5 -96.5 157t-163 57.5q-139 0 -211.5 -105.5
t-72.5 -301.5q0 -127 32 -229.5t97 -162t161 -59.5q139 0 212 109t73 307q0 128 -31.5 227.5z" />
    <glyph glyph-name="oslash" unicode="&#xf8;" horiz-adv-x="1213" 
d="M1052.5 890.5q64.5 -144.5 64.5 -330.5q0 -183 -67 -313t-185 -196.5t-269 -66.5q-59 0 -116 11l-66 -195l-125 36l68 201q-132 68 -196.5 212.5t-64.5 330.5q0 183 67 312.5t185 196.5t268 67q60 0 117 -11l67 197l125 -36l-69 -203q132 -68 196.5 -212.5zM345 381.5
q26 -94.5 77 -154.5l258 761q-33 10 -77 10q-139 0 -211.5 -105.5t-72.5 -301.5q0 -115 26 -209.5zM821 249q73 109 73 307q0 115 -25.5 208t-76.5 151l-259 -764q32 -11 76 -11q139 0 212 109z" />
    <glyph glyph-name="oslashacute" unicode="&#x1ff;" horiz-adv-x="1213" 
d="M1052.5 890.5q64.5 -144.5 64.5 -330.5q0 -183 -67 -313t-185 -196.5t-269 -66.5q-59 0 -116 11l-66 -195l-125 36l68 201q-132 68 -196.5 212.5t-64.5 330.5q0 183 67 312.5t185 196.5t268 67q60 0 117 -11l67 197l125 -36l-69 -203q132 -68 196.5 -212.5zM345 381.5
q26 -94.5 77 -154.5l258 761q-33 10 -77 10q-139 0 -211.5 -105.5t-72.5 -301.5q0 -115 26 -209.5zM821 249q73 109 73 307q0 115 -25.5 208t-76.5 151l-259 -764q32 -11 76 -11q139 0 212 109zM384 1407q119 131 187.5 210.5t129.5 165.5l156 -135q-24 -40 -103 -120.5
t-162 -150.5t-118 -83l-111 90z" />
    <glyph glyph-name="otilde" unicode="&#xf5;" horiz-adv-x="1213" 
d="M163 892.5q67 129.5 185 196.5t268 67q173 0 285 -80t164 -214t52 -302q0 -183 -67 -313t-185 -196.5t-269 -66.5q-172 0 -284 80t-164 214t-52 302q0 183 67 312.5zM862.5 783.5q-31.5 99.5 -96.5 157t-163 57.5q-139 0 -211.5 -105.5t-72.5 -301.5q0 -127 32 -229.5
t97 -162t161 -59.5q139 0 212 109t73 307q0 128 -31.5 227.5zM261 1549.5q41 44.5 94.5 71.5t111.5 27q59 0 98.5 -20.5t84.5 -59.5q34 -29 57.5 -43t54.5 -14q60 0 100.5 26t82.5 72l86 -72q-41 -85 -112 -139t-158 -54q-64 0 -103.5 21.5t-83.5 60.5q-33 29 -55.5 42.5
t-53.5 13.5q-54 0 -98.5 -27.5t-84.5 -69.5l-85 68q23 52 64 96.5z" />
    <glyph glyph-name="oe" unicode="&#x153;" horiz-adv-x="1920" 
d="M1821 603.5q-2 -46.5 -9 -81.5h-703q1 -7 1 -20q17 -351 345 -351q62 0 155.5 18.5t133.5 42.5l42 -126q-55 -44 -168 -73t-219 -29q-134 0 -235.5 48.5t-165.5 142.5q-68 -94 -173 -142.5t-232 -48.5q-171 0 -282.5 80t-163 214t-51.5 302q0 183 67 312.5t185 196.5
t268 67q135 0 232 -50.5t158 -141.5q66 92 169 142t237 50q114 0 205.5 -49.5t146.5 -146.5t59 -234q0 -76 -2 -122.5zM820.5 249q74.5 109 74.5 307q0 127 -32 227t-97.5 157.5t-162.5 57.5q-138 0 -211 -105.5t-73 -301.5q0 -127 31.5 -229t96 -162t159.5 -60
q140 0 214.5 109zM1618 715q0 127 -51.5 206t-176.5 79q-111 0 -184 -78.5t-91 -253.5h501q2 32 2 47z" />
    <glyph glyph-name="p" unicode="p" horiz-adv-x="1238" 
d="M917 1095.5q102 -60.5 163 -183t61 -300.5q0 -183 -71 -326t-200.5 -222.5t-299.5 -79.5q-102 0 -187 29l3 -152v-367h-220v1646h199v-123q56 59 130 99t196 40q124 0 226 -60.5zM843.5 886.5q-73.5 96.5 -213.5 96.5q-73 0 -134.5 -27.5t-109.5 -65.5v-695
q31 -27 80.5 -39t124.5 -12q94 0 168 52t116 153t42 244q0 197 -73.5 293.5z" />
    <glyph glyph-name="uni1E57" unicode="&#x1e57;" horiz-adv-x="1238" 
d="M917 1095.5q102 -60.5 163 -183t61 -300.5q0 -183 -71 -326t-200.5 -222.5t-299.5 -79.5q-102 0 -187 29l3 -152v-367h-220v1646h199v-123q56 59 130 99t196 40q124 0 226 -60.5zM843.5 886.5q-73.5 96.5 -213.5 96.5q-73 0 -134.5 -27.5t-109.5 -65.5v-695
q31 -27 80.5 -39t124.5 -12q94 0 168 52t116 153t42 244q0 197 -73.5 293.5zM571.5 1560q23.5 36 61.5 57t77 21q68 0 104.5 -38t36.5 -97q0 -44 -23 -80t-60 -56t-79 -20q-38 0 -70 16.5t-51.5 47.5t-19.5 71q0 42 23.5 78z" />
    <glyph glyph-name="thorn" unicode="&#xfe;" horiz-adv-x="1238" 
d="M917 1095.5q102 -60.5 163 -183t61 -300.5q0 -183 -71.5 -326.5t-202.5 -223.5t-301 -80q-88 0 -193 20l13 -171v-338h-220v2168h220v-472l-8 -159q53 54 126.5 90t186.5 36q124 0 226 -60.5zM843.5 886.5q-73.5 96.5 -213.5 96.5q-73 0 -134.5 -27.5t-109.5 -65.5v-706
q57 -40 205 -40q94 0 168 52t116 153t42 244q0 197 -73.5 293.5z" />
    <glyph glyph-name="q" unicode="q" horiz-adv-x="1237" 
d="M1073 1140v-1646h-220v367l6 247q-54 -53 -127.5 -88.5t-185.5 -35.5q-124 0 -225.5 60.5t-162.5 183t-61 300.5q0 183 71 326t200.5 222.5t299.5 79.5q71 0 137 -14t110 -33zM394.5 253.5q73.5 -96.5 212.5 -96.5q74 0 137 28t109 65v695q-30 27 -80.5 39t-126.5 12
q-93 0 -167 -52t-116 -153.5t-42 -243.5q0 -197 73.5 -293.5z" />
    <glyph glyph-name="r" unicode="r" horiz-adv-x="819" 
d="M787 1143v-206q-21 12 -54.5 19.5t-95.5 7.5q-76 0 -140.5 -27.5t-108.5 -66.5v-870h-220v1138h185l15 -126q22 30 71.5 64t113 57.5t123.5 23.5q80 0 111 -14z" />
    <glyph glyph-name="racute" unicode="&#x155;" horiz-adv-x="819" 
d="M381 1407q119 131 187.5 210.5t129.5 165.5l156 -135q-24 -40 -103 -120.5t-162 -150.5t-118 -83l-111 90zM787 1143v-206q-21 12 -54.5 19.5t-95.5 7.5q-76 0 -140.5 -27.5t-108.5 -66.5v-870h-220v1138h185l15 -126q22 30 71.5 64t113 57.5t123.5 23.5q80 0 111 -14z
" />
    <glyph glyph-name="rcaron" unicode="&#x159;" horiz-adv-x="819" 
d="M493 1487l232 222l135 -56l-268 -332h-198l-276 333l126 56zM787 1143v-206q-21 12 -54.5 19.5t-95.5 7.5q-76 0 -140.5 -27.5t-108.5 -66.5v-870h-220v1138h185l15 -126q22 30 71.5 64t113 57.5t123.5 23.5q80 0 111 -14z" />
    <glyph glyph-name="rcommaaccent" unicode="&#x157;" horiz-adv-x="819" 
d="M185 -493q16 19 27.5 59t11.5 86q0 41 -19 79.5t-48 44.5v50l158 92q40 -19 68.5 -76t28.5 -136q0 -65 -24 -120.5t-59 -93t-69 -52.5l-75 41v26zM787 1143v-206q-21 12 -54.5 19.5t-95.5 7.5q-76 0 -140.5 -27.5t-108.5 -66.5v-870h-220v1138h185l15 -126q22 30 71.5 64
t113 57.5t123.5 23.5q80 0 111 -14z" />
    <glyph glyph-name="s" unicode="s" horiz-adv-x="977" 
d="M215 196.5q51 -19.5 119 -34.5t135 -15q98 0 150.5 37t52.5 103q0 63 -59.5 108t-175.5 94q-151 64 -234.5 150t-83.5 217q0 97 54.5 164.5t147.5 101.5t210 34q92 0 173 -20t116 -39l-36 -166q-28 24 -99 43.5t-147 19.5q-105 0 -160.5 -34t-55.5 -93q0 -50 25.5 -86
t72.5 -63t123 -58q146 -59 240 -142.5t94 -214.5q0 -102 -48.5 -173.5t-139 -108.5t-214.5 -37q-111 0 -215.5 25t-147.5 56l33 164q19 -13 70 -32.5z" />
    <glyph glyph-name="sacute" unicode="&#x15b;" horiz-adv-x="977" 
d="M401 1407q119 131 187.5 210.5t129.5 165.5l156 -135q-24 -40 -103 -120.5t-162 -150.5t-118 -83l-111 90zM215 196.5q51 -19.5 119 -34.5t135 -15q98 0 150.5 37t52.5 103q0 63 -59.5 108t-175.5 94q-151 64 -234.5 150t-83.5 217q0 97 54.5 164.5t147.5 101.5t210 34
q92 0 173 -20t116 -39l-36 -166q-28 24 -99 43.5t-147 19.5q-105 0 -160.5 -34t-55.5 -93q0 -50 25.5 -86t72.5 -63t123 -58q146 -59 240 -142.5t94 -214.5q0 -102 -48.5 -173.5t-139 -108.5t-214.5 -37q-111 0 -215.5 25t-147.5 56l33 164q19 -13 70 -32.5z" />
    <glyph glyph-name="scaron" unicode="&#x161;" horiz-adv-x="977" 
d="M513 1487l232 222l135 -56l-268 -332h-198l-276 333l126 56zM215 196.5q51 -19.5 119 -34.5t135 -15q98 0 150.5 37t52.5 103q0 63 -59.5 108t-175.5 94q-151 64 -234.5 150t-83.5 217q0 97 54.5 164.5t147.5 101.5t210 34q92 0 173 -20t116 -39l-36 -166
q-28 24 -99 43.5t-147 19.5q-105 0 -160.5 -34t-55.5 -93q0 -50 25.5 -86t72.5 -63t123 -58q146 -59 240 -142.5t94 -214.5q0 -102 -48.5 -173.5t-139 -108.5t-214.5 -37q-111 0 -215.5 25t-147.5 56l33 164q19 -13 70 -32.5z" />
    <glyph glyph-name="scedilla" unicode="&#x15f;" horiz-adv-x="977" 
d="M795 88.5q-82 -80.5 -230 -99.5q31 -63 31 -168q0 -16 -2 -50q-10 -119 -77.5 -177t-162.5 -58q-42 0 -86 8t-61 20l15 142q22 -14 82 -14q53 0 87.5 36.5t39.5 113.5q5 32 5 69q0 42 -8 74q-100 6 -188.5 29t-127.5 51l33 164q19 -13 70 -32.5t119 -34.5t135 -15
q98 0 150.5 37t52.5 103q0 63 -59.5 108t-175.5 94q-151 64 -234.5 150t-83.5 217q0 97 54.5 164.5t147.5 101.5t210 34q92 0 173 -20t116 -39l-36 -166q-28 24 -99 43.5t-147 19.5q-105 0 -160.5 -34t-55.5 -93q0 -50 25.5 -86t72.5 -63t123 -58q146 -59 240 -142.5
t94 -214.5q0 -134 -82 -214.5z" />
    <glyph glyph-name="scircumflex" unicode="&#x15d;" horiz-adv-x="977" 
d="M412 1682h198l268 -332l-135 -56l-232 222l-249 -223l-126 56zM215 196.5q51 -19.5 119 -34.5t135 -15q98 0 150.5 37t52.5 103q0 63 -59.5 108t-175.5 94q-151 64 -234.5 150t-83.5 217q0 97 54.5 164.5t147.5 101.5t210 34q92 0 173 -20t116 -39l-36 -166
q-28 24 -99 43.5t-147 19.5q-105 0 -160.5 -34t-55.5 -93q0 -50 25.5 -86t72.5 -63t123 -58q146 -59 240 -142.5t94 -214.5q0 -102 -48.5 -173.5t-139 -108.5t-214.5 -37q-111 0 -215.5 25t-147.5 56l33 164q19 -13 70 -32.5z" />
    <glyph glyph-name="scommaaccent" unicode="&#x219;" horiz-adv-x="977" 
d="M402 -493q16 19 27.5 59t11.5 86q0 41 -19 79.5t-48 44.5v50l158 92q40 -19 68.5 -76t28.5 -136q0 -65 -24 -120.5t-59 -93t-69 -52.5l-75 41v26zM215 196.5q51 -19.5 119 -34.5t135 -15q98 0 150.5 37t52.5 103q0 63 -59.5 108t-175.5 94q-151 64 -234.5 150t-83.5 217
q0 97 54.5 164.5t147.5 101.5t210 34q92 0 173 -20t116 -39l-36 -166q-28 24 -99 43.5t-147 19.5q-105 0 -160.5 -34t-55.5 -93q0 -50 25.5 -86t72.5 -63t123 -58q146 -59 240 -142.5t94 -214.5q0 -102 -48.5 -173.5t-139 -108.5t-214.5 -37q-111 0 -215.5 25t-147.5 56
l33 164q19 -13 70 -32.5z" />
    <glyph glyph-name="uni1E61" unicode="&#x1e61;" horiz-adv-x="977" 
d="M215 196.5q51 -19.5 119 -34.5t135 -15q98 0 150.5 37t52.5 103q0 63 -59.5 108t-175.5 94q-151 64 -234.5 150t-83.5 217q0 97 54.5 164.5t147.5 101.5t210 34q92 0 173 -20t116 -39l-36 -166q-28 24 -99 43.5t-147 19.5q-105 0 -160.5 -34t-55.5 -93q0 -50 25.5 -86
t72.5 -63t123 -58q146 -59 240 -142.5t94 -214.5q0 -102 -48.5 -173.5t-139 -108.5t-214.5 -37q-111 0 -215.5 25t-147.5 56l33 164q19 -13 70 -32.5zM381.5 1560q23.5 36 61.5 57t77 21q68 0 104.5 -38t36.5 -97q0 -44 -23 -80t-60 -56t-79 -20q-38 0 -70 16.5t-51.5 47.5
t-19.5 71q0 42 23.5 78z" />
    <glyph glyph-name="germandbls" unicode="&#xdf;" horiz-adv-x="1268" 
d="M892.5 799q19.5 -35 49 -63t80.5 -68q68 -54 110.5 -97t73 -107.5t30.5 -150.5q0 -115 -56 -189t-146 -107t-195 -33q-72 0 -136 9.5t-95 23.5v173q36 -21 96.5 -36.5t142.5 -15.5q70 0 118 36t48 115q0 47 -20 85t-49 67.5t-80 73.5q-62 52 -101 93.5t-66 102t-27 140.5
q0 45 14.5 82.5t35.5 66.5t57 71q34 40 54.5 67.5t34 62t13.5 74.5q0 74 -50.5 111t-146.5 37q-136 0 -212 -108t-76 -367v-948h-220v966v8h-138v129l154 40q28 147 103 245t184 144.5t242 46.5q106 0 192 -32t136 -94.5t50 -149.5q0 -58 -18.5 -105t-45 -82t-68.5 -80
q-47 -50 -69.5 -84.5t-22.5 -74.5q0 -43 19.5 -78z" />
    <glyph glyph-name="t" unicode="t" horiz-adv-x="850" 
d="M228 974h-148v119l36 10q46 13 68 21.5t38.5 24t26.5 42.5q15 38 44 137l22 72h132v-260h322v-166h-322v-577q0 -114 9 -161.5t33.5 -61.5t83.5 -14q43 0 104.5 14t90.5 29l38 -126q-49 -36 -140.5 -64.5t-174.5 -28.5q-125 0 -194 62.5t-69 226.5v701z" />
    <glyph glyph-name="tbar" unicode="&#x167;" horiz-adv-x="850" 
d="M806 77q-49 -36 -140.5 -64.5t-174.5 -28.5q-125 0 -194 62.5t-69 226.5v323h-147v164h147v214h-148v119l36 10q46 13 68 21.5t38.5 24t26.5 42.5q15 38 44 137l22 72h132v-260h322v-166h-322v-214h322v-164h-322v-199q0 -114 9 -161.5t33.5 -61.5t83.5 -14
q43 0 104.5 14t90.5 29z" />
    <glyph glyph-name="tcaron" unicode="&#x165;" horiz-adv-x="1047" 
d="M228 974h-148v119l36 10q46 13 68 21.5t38.5 24t26.5 42.5q15 38 44 137l22 72h132v-260h322v-166h-322v-577q0 -114 9 -161.5t33.5 -61.5t83.5 -14q43 0 104.5 14t90.5 29l38 -126q-49 -36 -140.5 -64.5t-174.5 -28.5q-125 0 -194 62.5t-69 226.5v701zM803 1225l12 41
q18 57 27 107.5t9 138.5q0 56 -17.5 116.5t-37.5 85.5l14 47l176 55q31 -28 46.5 -92.5t15.5 -148.5q0 -125 -37 -237t-90 -175l-110 34z" />
    <glyph glyph-name="uni0163" unicode="&#x163;" horiz-adv-x="850" 
d="M679 16.5q-82 -27.5 -160 -31.5q29 -66 29 -165q0 -15 -2 -49q-10 -119 -77.5 -177t-162.5 -58q-42 0 -86 8t-61 20l15 142q22 -14 82 -14q53 0 87.5 36.5t39.5 113.5q5 32 5 69q0 52 -13 89q-70 23 -108.5 88t-38.5 185v701h-148v119l36 10q46 13 68 21.5t38.5 24
t26.5 42.5q15 38 44 137l22 72h132v-260h322v-166h-322v-577q0 -114 9 -161.5t33.5 -61.5t83.5 -14q43 0 104.5 14t90.5 29l38 -126q-45 -33 -127 -60.5z" />
    <glyph glyph-name="uni021B" unicode="&#x21b;" horiz-adv-x="850" 
d="M354 -493q16 19 27.5 59t11.5 86q0 41 -19 79.5t-48 44.5v50l158 92q40 -19 68.5 -76t28.5 -136q0 -65 -24 -120.5t-59 -93t-69 -52.5l-75 41v26zM228 974h-148v119l36 10q46 13 68 21.5t38.5 24t26.5 42.5q15 38 44 137l22 72h132v-260h322v-166h-322v-577
q0 -114 9 -161.5t33.5 -61.5t83.5 -14q43 0 104.5 14t90.5 29l38 -126q-49 -36 -140.5 -64.5t-174.5 -28.5q-125 0 -194 62.5t-69 226.5v701z" />
    <glyph glyph-name="uni1E6B" unicode="&#x1e6b;" horiz-adv-x="850" 
d="M228 974h-148v119l36 10q46 13 68 21.5t38.5 24t26.5 42.5q15 38 44 137l22 72h132v-260h322v-166h-322v-577q0 -114 9 -161.5t33.5 -61.5t83.5 -14q43 0 104.5 14t90.5 29l38 -126q-49 -36 -140.5 -64.5t-174.5 -28.5q-125 0 -194 62.5t-69 226.5v701zM248.5 1730
q23.5 36 61.5 57t77 21q68 0 104.5 -38t36.5 -97q0 -44 -23 -80t-60 -56t-79 -20q-38 0 -70 16.5t-51.5 47.5t-19.5 71q0 42 23.5 78z" />
    <glyph glyph-name="u" unicode="u" horiz-adv-x="1249" 
d="M1073 1140v-1156h-85q-39 0 -62 6t-35.5 25t-12.5 57v28q-78 -47 -179.5 -81.5t-189.5 -34.5q-139 0 -213 59t-100 163.5t-26 267.5v666h220v-665q0 -139 20.5 -204.5t63 -85.5t125.5 -20q60 0 135.5 26t118.5 54v895h220z" />
    <glyph glyph-name="uacute" unicode="&#xfa;" horiz-adv-x="1249" 
d="M525 1407q119 131 187.5 210.5t129.5 165.5l156 -135q-24 -40 -103 -120.5t-162 -150.5t-118 -83l-111 90zM1073 1140v-1156h-85q-39 0 -62 6t-35.5 25t-12.5 57v28q-78 -47 -179.5 -81.5t-189.5 -34.5q-139 0 -213 59t-100 163.5t-26 267.5v666h220v-665
q0 -139 20.5 -204.5t63 -85.5t125.5 -20q60 0 135.5 26t118.5 54v895h220z" />
    <glyph glyph-name="ubreve" unicode="&#x16d;" horiz-adv-x="1249" 
d="M1073 1140v-1156h-85q-39 0 -62 6t-35.5 25t-12.5 57v28q-78 -47 -179.5 -81.5t-189.5 -34.5q-139 0 -213 59t-100 163.5t-26 267.5v666h220v-665q0 -139 20.5 -204.5t63 -85.5t125.5 -20q60 0 135.5 26t118.5 54v895h220zM445 1685q1 -40 10.5 -81.5t51.5 -82.5t128 -41
q120 0 154.5 68.5t37.5 136.5h150q1 -10 1 -31q0 -90 -44 -169.5t-122.5 -128t-177.5 -48.5q-104 0 -182 48t-120 127.5t-42 170.5q0 21 1 31h154z" />
    <glyph glyph-name="uni01D4" unicode="&#x1d4;" horiz-adv-x="1249" 
d="M1073 1140v-1156h-85q-39 0 -62 6t-35.5 25t-12.5 57v28q-78 -47 -179.5 -81.5t-189.5 -34.5q-139 0 -213 59t-100 163.5t-26 267.5v666h220v-665q0 -139 20.5 -204.5t63 -85.5t125.5 -20q60 0 135.5 26t118.5 54v895h220zM637 1487l232 222l135 -56l-268 -332h-198
l-276 333l126 56z" />
    <glyph glyph-name="ucircumflex" unicode="&#xfb;" horiz-adv-x="1249" 
d="M536 1682h198l268 -332l-135 -56l-232 222l-249 -223l-126 56zM1073 1140v-1156h-85q-39 0 -62 6t-35.5 25t-12.5 57v28q-78 -47 -179.5 -81.5t-189.5 -34.5q-139 0 -213 59t-100 163.5t-26 267.5v666h220v-665q0 -139 20.5 -204.5t63 -85.5t125.5 -20q60 0 135.5 26
t118.5 54v895h220z" />
    <glyph glyph-name="udieresis" unicode="&#xfc;" horiz-adv-x="1249" 
d="M285.5 1567.5q22.5 34.5 58.5 54.5t74 20q65 0 97.5 -36t32.5 -94q0 -43 -21.5 -77t-57 -53t-75.5 -19q-56 0 -93.5 35.5t-37.5 94.5q0 40 22.5 74.5zM743.5 1567.5q22.5 34.5 58.5 54.5t74 20q64 0 97 -36.5t33 -93.5q0 -43 -21.5 -77t-57 -53t-75.5 -19
q-56 0 -93.5 35.5t-37.5 94.5q0 40 22.5 74.5zM1073 1140v-1156h-85q-39 0 -62 6t-35.5 25t-12.5 57v28q-78 -47 -179.5 -81.5t-189.5 -34.5q-139 0 -213 59t-100 163.5t-26 267.5v666h220v-665q0 -139 20.5 -204.5t63 -85.5t125.5 -20q60 0 135.5 26t118.5 54v895h220z" />
    <glyph glyph-name="ugrave" unicode="&#xf9;" horiz-adv-x="1249" 
d="M1073 1140v-1156h-85q-39 0 -62 6t-35.5 25t-12.5 57v28q-78 -47 -179.5 -81.5t-189.5 -34.5q-139 0 -213 59t-100 163.5t-26 267.5v666h220v-665q0 -139 20.5 -204.5t63 -85.5t125.5 -20q60 0 135.5 26t118.5 54v895h220zM514 1378.5q-80 66.5 -156.5 143.5t-108.5 126
l157 135q97 -125 306 -362l32 -37l-111 -90q-39 18 -119 84.5z" />
    <glyph glyph-name="uhungarumlaut" unicode="&#x171;" horiz-adv-x="1249" 
d="M1073 1140v-1156h-85q-39 0 -62 6t-35.5 25t-12.5 57v28q-78 -47 -179.5 -81.5t-189.5 -34.5q-139 0 -213 59t-100 163.5t-26 267.5v666h220v-665q0 -139 20.5 -204.5t63 -85.5t125.5 -20q60 0 135.5 26t118.5 54v895h220zM520 1826l162 -111q-30 -51 -91.5 -129
t-125.5 -146t-101 -93l-103 71zM1027 1817l155 -110q-25 -48 -87 -125t-128.5 -144.5t-105.5 -90.5l-101 71z" />
    <glyph glyph-name="umacron" unicode="&#x16b;" horiz-adv-x="1249" 
d="M1073 1140v-1156h-85q-39 0 -62 6t-35.5 25t-12.5 57v28q-78 -47 -179.5 -81.5t-189.5 -34.5q-139 0 -213 59t-100 163.5t-26 267.5v666h220v-665q0 -139 20.5 -204.5t63 -85.5t125.5 -20q60 0 135.5 26t118.5 54v895h220zM909 1588v-163h-547v163h547z" />
    <glyph glyph-name="uogonek" unicode="&#x173;" horiz-adv-x="1249" 
d="M1144 -335v-118q-40 -30 -104 -44.5t-133 -14.5q-110 0 -178 56t-68 158q0 57 34 114.5t89 106t117 79.5q-23 20 -23 70v28q-78 -47 -179.5 -81.5t-189.5 -34.5q-139 0 -213 59t-100 163.5t-26 267.5v666h220v-665q0 -139 20.5 -204.5t63 -85.5t125.5 -20q60 0 135.5 26
t118.5 54v895h220v-1156h-16q-82 -52 -131 -113t-49 -127q0 -62 33.5 -85t94.5 -23q64 0 139 29z" />
    <glyph glyph-name="uring" unicode="&#x16f;" horiz-adv-x="1249" 
d="M359.5 1755q45.5 61 118 89.5t156.5 28.5q148 0 234.5 -69.5t86.5 -195.5q0 -92 -43.5 -155t-117 -94t-163.5 -31q-94 0 -166 33.5t-111.5 95.5t-39.5 144q0 93 45.5 154zM752.5 1711q-48.5 38 -123.5 38q-67 0 -113 -34t-46 -108q0 -68 45 -110.5t120 -42.5
q77 0 121.5 37t44.5 114q0 68 -48.5 106zM1073 1140v-1156h-85q-39 0 -62 6t-35.5 25t-12.5 57v28q-78 -47 -179.5 -81.5t-189.5 -34.5q-139 0 -213 59t-100 163.5t-26 267.5v666h220v-665q0 -139 20.5 -204.5t63 -85.5t125.5 -20q60 0 135.5 26t118.5 54v895h220z" />
    <glyph glyph-name="utilde" unicode="&#x169;" horiz-adv-x="1249" 
d="M1073 1140v-1156h-85q-39 0 -62 6t-35.5 25t-12.5 57v28q-78 -47 -179.5 -81.5t-189.5 -34.5q-139 0 -213 59t-100 163.5t-26 267.5v666h220v-665q0 -139 20.5 -204.5t63 -85.5t125.5 -20q60 0 135.5 26t118.5 54v895h220zM279 1549.5q41 44.5 94.5 71.5t111.5 27
q59 0 98.5 -20.5t84.5 -59.5q34 -29 57.5 -43t54.5 -14q60 0 100.5 26t82.5 72l86 -72q-41 -85 -112 -139t-158 -54q-64 0 -103.5 21.5t-83.5 60.5q-33 29 -55.5 42.5t-53.5 13.5q-54 0 -98.5 -27.5t-84.5 -69.5l-85 68q23 52 64 96.5z" />
    <glyph glyph-name="v" unicode="v" horiz-adv-x="1113" 
d="M1094 1140l-438 -1156h-185l-452 1156h237l226 -649l84 -272l77 272l217 649h234z" />
    <glyph glyph-name="w" unicode="w" horiz-adv-x="1632" 
d="M1611 1140l-348 -1156h-203l-204 745l-37 182l-40 -182l-201 -745h-209l-348 1156h220l184 -684l50 -214l46 213l190 685h219l189 -684l49 -218l50 211l178 691h215z" />
    <glyph glyph-name="wacute" unicode="&#x1e83;" horiz-adv-x="1632" 
d="M713 1418q119 131 187.5 210.5t129.5 165.5l156 -135q-24 -40 -103 -120.5t-162 -150.5t-118 -83l-111 90zM1611 1140l-348 -1156h-203l-204 745l-37 182l-40 -182l-201 -745h-209l-348 1156h220l184 -684l50 -214l46 213l190 685h219l189 -684l49 -218l50 211l178 691
h215z" />
    <glyph glyph-name="wcircumflex" unicode="&#x175;" horiz-adv-x="1632" 
d="M724 1693h198l268 -332l-135 -56l-232 222l-249 -223l-126 56zM1611 1140l-348 -1156h-203l-204 745l-37 182l-40 -182l-201 -745h-209l-348 1156h220l184 -684l50 -214l46 213l190 685h219l189 -684l49 -218l50 211l178 691h215z" />
    <glyph glyph-name="wdieresis" unicode="&#x1e85;" horiz-adv-x="1632" 
d="M473.5 1578.5q22.5 34.5 58.5 54.5t74 20q65 0 97.5 -36t32.5 -94q0 -43 -21.5 -77t-57 -53t-75.5 -19q-56 0 -93.5 35.5t-37.5 94.5q0 40 22.5 74.5zM931.5 1578.5q22.5 34.5 58.5 54.5t74 20q64 0 97 -36.5t33 -93.5q0 -43 -21.5 -77t-57 -53t-75.5 -19
q-56 0 -93.5 35.5t-37.5 94.5q0 40 22.5 74.5zM1611 1140l-348 -1156h-203l-204 745l-37 182l-40 -182l-201 -745h-209l-348 1156h220l184 -684l50 -214l46 213l190 685h219l189 -684l49 -218l50 211l178 691h215z" />
    <glyph glyph-name="wgrave" unicode="&#x1e81;" horiz-adv-x="1632" 
d="M1611 1140l-348 -1156h-203l-204 745l-37 182l-40 -182l-201 -745h-209l-348 1156h220l184 -684l50 -214l46 213l190 685h219l189 -684l49 -218l50 211l178 691h215zM702 1389.5q-80 66.5 -156.5 143.5t-108.5 126l157 135q97 -125 306 -362l32 -37l-111 -90
q-39 18 -119 84.5z" />
    <glyph glyph-name="x" unicode="x" horiz-adv-x="1134" 
d="M1100 0h-255l-250 379l-34 55l-28 -58l-232 -376h-251l401 579l-404 561h250l250 -378l25 -42l21 44l251 376h247l-405 -557z" />
    <glyph glyph-name="y" unicode="y" horiz-adv-x="1116" 
d="M1093 1140l-384 -1176q-128 -391 -358 -456q-23 -6 -54 -10.5t-54 -4.5q-26 0 -65 4.5t-47 9.5v179q15 -5 45.5 -8t50.5 -3q50 0 105.5 27t107.5 99.5t82 198.5h-65l-413 1140h235l252 -768l58 -186l51 186l216 768h237z" />
    <glyph glyph-name="yacute" unicode="&#xfd;" horiz-adv-x="1116" 
d="M1093 1140l-384 -1176q-128 -391 -358 -456q-23 -6 -54 -10.5t-54 -4.5q-26 0 -65 4.5t-47 9.5v179q15 -5 45.5 -8t50.5 -3q50 0 105.5 27t107.5 99.5t82 198.5h-65l-413 1140h235l252 -768l58 -186l51 186l216 768h237zM481 1407q119 131 187.5 210.5t129.5 165.5
l156 -135q-24 -40 -103 -120.5t-162 -150.5t-118 -83l-111 90z" />
    <glyph glyph-name="ycircumflex" unicode="&#x177;" horiz-adv-x="1116" 
d="M1093 1140l-384 -1176q-128 -391 -358 -456q-23 -6 -54 -10.5t-54 -4.5q-26 0 -65 4.5t-47 9.5v179q15 -5 45.5 -8t50.5 -3q50 0 105.5 27t107.5 99.5t82 198.5h-65l-413 1140h235l252 -768l58 -186l51 186l216 768h237zM492 1682h198l268 -332l-135 -56l-232 222
l-249 -223l-126 56z" />
    <glyph glyph-name="ydieresis" unicode="&#xff;" horiz-adv-x="1116" 
d="M1093 1140l-384 -1176q-128 -391 -358 -456q-23 -6 -54 -10.5t-54 -4.5q-26 0 -65 4.5t-47 9.5v179q15 -5 45.5 -8t50.5 -3q50 0 105.5 27t107.5 99.5t82 198.5h-65l-413 1140h235l252 -768l58 -186l51 186l216 768h237zM241.5 1567.5q22.5 34.5 58.5 54.5t74 20
q65 0 97.5 -36t32.5 -94q0 -43 -21.5 -77t-57 -53t-75.5 -19q-56 0 -93.5 35.5t-37.5 94.5q0 40 22.5 74.5zM699.5 1567.5q22.5 34.5 58.5 54.5t74 20q64 0 97 -36.5t33 -93.5q0 -43 -21.5 -77t-57 -53t-75.5 -19q-56 0 -93.5 35.5t-37.5 94.5q0 40 22.5 74.5z" />
    <glyph glyph-name="uni1E8F" unicode="&#x1e8f;" horiz-adv-x="1116" 
d="M1093 1140l-384 -1176q-128 -391 -358 -456q-23 -6 -54 -10.5t-54 -4.5q-26 0 -65 4.5t-47 9.5v179q15 -5 45.5 -8t50.5 -3q50 0 105.5 27t107.5 99.5t82 198.5h-65l-413 1140h235l252 -768l58 -186l51 186l216 768h237zM461.5 1560q23.5 36 61.5 57t77 21
q68 0 104.5 -38t36.5 -97q0 -44 -23 -80t-60 -56t-79 -20q-38 0 -70 16.5t-51.5 47.5t-19.5 71q0 42 23.5 78z" />
    <glyph glyph-name="ygrave" unicode="&#x1ef3;" horiz-adv-x="1116" 
d="M1093 1140l-384 -1176q-128 -391 -358 -456q-23 -6 -54 -10.5t-54 -4.5q-26 0 -65 4.5t-47 9.5v179q15 -5 45.5 -8t50.5 -3q50 0 105.5 27t107.5 99.5t82 198.5h-65l-413 1140h235l252 -768l58 -186l51 186l216 768h237zM470 1378.5q-80 66.5 -156.5 143.5t-108.5 126
l157 135q97 -125 306 -362l32 -37l-111 -90q-39 18 -119 84.5z" />
    <glyph glyph-name="z" unicode="z" horiz-adv-x="1061" 
d="M692 972h-550v168h812l35 -95l-550 -801l-59 -84h589v-160h-845l-42 82z" />
    <glyph glyph-name="zacute" unicode="&#x17a;" horiz-adv-x="1061" 
d="M426 1407q119 131 187.5 210.5t129.5 165.5l156 -135q-24 -40 -103 -120.5t-162 -150.5t-118 -83l-111 90zM692 972h-550v168h812l35 -95l-550 -801l-59 -84h589v-160h-845l-42 82z" />
    <glyph glyph-name="zcaron" unicode="&#x17e;" horiz-adv-x="1061" 
d="M578 1487l232 222l135 -56l-268 -332h-198l-276 333l126 56zM692 972h-550v168h812l35 -95l-550 -801l-59 -84h589v-160h-845l-42 82z" />
    <glyph glyph-name="zdotaccent" unicode="&#x17c;" horiz-adv-x="1061" 
d="M692 972h-550v168h812l35 -95l-550 -801l-59 -84h589v-160h-845l-42 82zM406.5 1560q23.5 36 61.5 57t77 21q68 0 104.5 -38t36.5 -97q0 -44 -23 -80t-60 -56t-79 -20q-38 0 -70 16.5t-51.5 47.5t-19.5 71q0 42 23.5 78z" />
    <glyph glyph-name="i.cy" horiz-adv-x="606" 
d="M413 1138v-1138h-220v1138h220zM174.5 1560q23.5 36 61.5 57t77 21q68 0 104.5 -38t36.5 -97q0 -44 -23 -80t-60 -56t-79 -20q-38 0 -70 16.5t-51.5 47.5t-19.5 71q0 42 23.5 78z" />
    <glyph glyph-name="i.dot" horiz-adv-x="606" 
d="M413 1138v-1138h-220v1138h220zM174.5 1560q23.5 36 61.5 57t77 21q68 0 104.5 -38t36.5 -97q0 -44 -23 -80t-60 -56t-79 -20q-38 0 -70 16.5t-51.5 47.5t-19.5 71q0 42 23.5 78z" />
    <glyph glyph-name="ordfeminine" unicode="&#xaa;" horiz-adv-x="1034" 
d="M787.5 1531.5q88.5 -67.5 88.5 -229.5v-615h-71h-46.5t-54.5 17.5t-15 54.5v14q-38 -39 -107.5 -67.5t-150.5 -28.5q-91 0 -159.5 29t-107 85t-38.5 134q0 97 47 157t133 94q81 30 178.5 43t193.5 13v64q0 66 -21.5 97.5t-61 41t-110.5 9.5q-42 0 -98.5 -13.5
t-106.5 -32.5t-72 -34l-56 121q20 19 82.5 46.5t142.5 47.5t152 20q170 0 258.5 -67.5zM557 835.5q44 11.5 76 26.5t44 26l1 -1v223q-103 0 -162.5 -5t-107.5 -29q-46 -23 -67 -54t-21 -83q0 -57 41 -86t106 -29q46 0 90 11.5z" />
    <glyph glyph-name="ordmasculine" unicode="&#xba;" horiz-adv-x="1033" 
d="M743.5 1542q87.5 -57 133 -160t45.5 -239q0 -160 -57.5 -264.5t-151 -153t-202.5 -48.5q-124 0 -214.5 57t-138 162t-47.5 246q0 157 62 260t158.5 150t201.5 47q123 0 210.5 -57zM665.5 897q48.5 72 48.5 232q0 151 -49 237t-140 86q-95 0 -150.5 -72t-55.5 -229
q0 -99 24 -172.5t69 -113.5t107 -40q98 0 146.5 72z" />
    <glyph glyph-name="IJ_acutecomb" horiz-adv-x="1353" 
d="M391 1843.5q142 128.5 145 136.5l146 -133q-74 -76 -194 -160.5t-202 -113.5l-93 92q56 50 198 178.5zM1092 1833.5q142 128.5 145 136.5l146 -133q-74 -76 -194 -160.5t-202 -113.5l-93 92q56 50 198 178.5zM433 1522v-1522h-226v1522h226zM769 -111.5
q78 69.5 107 177.5q21 76 26.5 194.5t5.5 311.5v36v914h226v-909l1 -214q0 -99 -4 -174t-16 -139q-22 -122 -94.5 -212t-167.5 -141t-187 -65l-68 117q93 34 171 103.5z" />
    <glyph glyph-name="fi_trk" horiz-adv-x="1417" 
d="M413 1138v-1138h-220v1138h220zM174.5 1560q23.5 36 61.5 57t77 21q68 0 104.5 -38t36.5 -97q0 -44 -23 -80t-60 -56t-79 -20q-38 0 -70 16.5t-51.5 47.5t-19.5 71q0 42 23.5 78zM681 974v122l173 44v99q0 160 61.5 259t155.5 141.5t196 42.5q42 0 82 -7t60 -15v-174
q-32 11 -69.5 15.5t-102.5 4.5q-74 0 -118.5 -56t-44.5 -161v-149h282v-166h-282v-974h-220v974h-173z" />
    <glyph glyph-name="ij_acutecomb" horiz-adv-x="1180" 
d="M194 1407q119 131 187.5 210.5t129.5 165.5l156 -135q-24 -40 -103 -120.5t-162 -150.5t-118 -83l-111 90zM794 1407q119 131 187.5 210.5t129.5 165.5l156 -135q-24 -40 -103 -120.5t-162 -150.5t-118 -83l-111 90zM413 1138v-1138h-220v1138h220zM581 -346q38 -7 63 -7
q87 0 121 74t34 231v1186h220v-1101q0 -287 -88.5 -415.5t-264.5 -128.5q-33 0 -81 3.5t-58 9.5v163q16 -8 54 -15z" />
    <glyph glyph-name="uni0394" unicode="&#x394;" horiz-adv-x="1577" 
d="M743 1508h32l746 -1481l-16 -27h-1436l-14 22zM768 1123l-428 -949h880z" />
    <glyph glyph-name="uni03A9" unicode="&#x3a9;" horiz-adv-x="1804" 
d="M1620 154v-154h-581v151q86 55 158 158t115.5 243t43.5 299q0 183 -67 302.5t-171.5 174.5t-222.5 55q-124 0 -232 -54t-176.5 -173.5t-68.5 -304.5q0 -156 51 -295.5t129.5 -243t161.5 -161.5v-151h-561l-1 154h333q-83 66 -160 174.5t-127 246.5t-50 284
q0 225 99.5 380t259.5 230.5t341 75.5q198 0 353 -79t243.5 -234t88.5 -373q0 -145 -42.5 -281t-114.5 -244.5t-160 -179.5h358z" />
    <glyph glyph-name="uni03BC" unicode="&#x3bc;" horiz-adv-x="1360" 
d="M1256 87q-10 -14 -41.5 -39.5t-77 -45.5t-94.5 -20q-58 0 -91 32.5t-29 105.5q-35 -39 -67 -66.5t-83 -48.5t-118 -21q-99 0 -163.5 23.5t-108.5 80.5l32 -459h-205v1511h219v-741q0 -90 26.5 -143t80 -76t139.5 -23q55 0 112 26t106 62v895h220v-906q0 -44 8 -60t26 -16
q33 0 78 27z" />
    <glyph glyph-name="pi" unicode="&#x3c0;" horiz-adv-x="1556" 
d="M1452 233q-10 -62 -55.5 -121.5t-116.5 -97.5t-152 -38q-104 0 -154.5 61t-50.5 175q0 24 1 37l49 706l-321 1l-28 -528q-6 -109 -26 -176.5t-50.5 -108.5t-84.5 -91q-59 -54 -151 -76l-134 121q16 4 51.5 21.5t70.5 42.5q52 38 78.5 86t36 100t17.5 140l36 469h-54
q-63 0 -105 -24.5t-78 -64.5l-111 53q2 18 17 54t33 61q41 54 108 79.5t171 25.5h713q63 0 98.5 17.5t48.5 57.5h142q-8 -137 -82 -198.5t-213 -61.5h-3l-30 -700q-5 -107 69 -107q40 0 84 43t69 91z" />
    <glyph glyph-name="zero" unicode="0" horiz-adv-x="1386" 
d="M221 969.5q73 146.5 201 225.5t289 79q280 0 403.5 -170t123.5 -454q0 -194 -68.5 -345t-194 -236t-289.5 -85q-186 0 -306.5 88t-176 234t-55.5 324q0 193 73 339.5zM977.5 880.5q-33.5 110.5 -103.5 175t-176 64.5q-157 1 -240 -123.5t-83 -344.5q0 -137 36 -254.5
t109.5 -189.5t181.5 -72q153 0 231 129.5t78 363.5q0 141 -33.5 251.5z" />
    <glyph glyph-name="one" unicode="1" horiz-adv-x="918" 
d="M155 946l-25 131q61 18 138.5 55.5t143.5 78.5t95 67l100 -25v-1253h-229v999q-132 -36 -223 -53z" />
    <glyph glyph-name="two" unicode="2" horiz-adv-x="1269" 
d="M1125 177v-177h-945l-33 113q183 106 337.5 234.5t251 270t96.5 274.5q0 104 -61 164.5t-176 60.5q-95 0 -186.5 -41t-149.5 -101l-93 124q71 78 186.5 135.5t266.5 57.5q232 0 334.5 -108.5t102.5 -279.5q0 -127 -67.5 -257.5t-190.5 -252t-288 -223.5z" />
    <glyph glyph-name="three" unicode="3" horiz-adv-x="1147" 
d="M873 487.5q81 -53.5 123 -132t42 -166.5q0 -142 -82 -262.5t-235 -193t-357 -72.5q-96 0 -211 20l-1 152q85 -17 164 -17q145 0 258.5 47.5t176.5 129t63 180.5q0 127 -75.5 201t-230.5 74q-15 0 -51 -2l-91 -22l-46 151q102 20 182 55q113 44 175.5 117t62.5 161
q0 106 -65 156.5t-171 50.5q-96 0 -171 -30t-143 -78l-86 125q72 59 186.5 108t232.5 49q119 0 218 -41t157.5 -121.5t58.5 -195.5q0 -123 -76 -221t-199 -156q110 -13 191 -66.5z" />
    <glyph glyph-name="four" unicode="4" horiz-adv-x="1339" 
d="M1271 0h-231v-376h-220v376h-650l-54 104l584 1195h79l136 -84l-466 -894l-89 -151h460l18 433h202v-433h231v-170z" />
    <glyph glyph-name="five" unicode="5" horiz-adv-x="1227" 
d="M205 -188q44 -2 66 -2q167 0 300.5 53.5t209 147.5t75.5 212q0 153 -78.5 228.5t-247.5 75.5q-118 0 -270 -48l-50 30l56 743h771l-22 -190h-578l-39 -400q131 29 229 29q146 0 247.5 -55.5t153.5 -157.5t52 -241q0 -147 -88 -280.5t-258.5 -218t-405.5 -87.5
q-83 0 -124 13z" />
    <glyph glyph-name="six" unicode="6" horiz-adv-x="1373" 
d="M1049 1431q-184 -49 -330.5 -167.5t-230.5 -276t-89 -318.5l-1 -46q0 -219 70 -352.5t235 -133.5q90 0 154 50.5t96 133t32 176.5q0 172 -63.5 246t-161.5 74q-55 0 -101.5 -14t-74.5 -32l-60 130q34 32 110 59.5t171 27.5q124 0 215.5 -60t139.5 -162t48 -223
q0 -148 -60 -275.5t-180.5 -205.5t-293.5 -78q-157 0 -273.5 79t-178.5 213.5t-62 294.5q0 257 124 472.5t316 353.5t389 176z" />
    <glyph glyph-name="seven" unicode="7" horiz-adv-x="1241" 
d="M150 1093l1 178h949l46 -58l-571 -1548l-235 68q266 566 564 1358z" />
    <glyph glyph-name="eight" unicode="8" horiz-adv-x="1307" 
d="M1109 169.5q-68 -92.5 -182 -139t-252 -46.5q-136 0 -254.5 41.5t-193.5 131.5t-75 228q0 121 75.5 231.5t234.5 187.5q-118 75 -184.5 167t-66.5 223q0 119 62 202.5t167.5 126t234.5 42.5q130 0 230 -43.5t155.5 -123t55.5 -182.5q0 -76 -29.5 -153.5t-92.5 -146
t-157 -114.5q106 -61 177.5 -116t117 -127.5t45.5 -163.5q0 -133 -68 -225.5zM538.5 1387.5q-57.5 -24.5 -91 -71t-33.5 -109.5q0 -68 36 -124.5t95.5 -102.5t146.5 -96q74 25 124 75t74 112.5t24 127.5q0 64 -30 112t-85.5 74.5t-130.5 26.5q-72 0 -129.5 -24.5z
M817.5 166.5q63.5 28.5 102.5 81.5t39 125q0 76 -43 134t-107.5 100t-176.5 101q-8 5 -24 13q-110 -45 -177.5 -130.5t-67.5 -188.5q0 -127 79.5 -195.5t240.5 -68.5q71 0 134.5 28.5z" />
    <glyph glyph-name="nine" unicode="9" horiz-adv-x="1399" 
d="M985.5 1193q114.5 -79 172.5 -213t58 -296q0 -273 -129.5 -504t-328 -380t-397.5 -190l-74 136q197 49 354 188t245.5 315.5t93.5 333.5l1 49q0 483 -305 483q-81 0 -145 -45.5t-99 -118.5t-35 -152q0 -120 31.5 -204t87 -126t127.5 -42q45 0 76 5.5t47 12t49 21.5
l52 -124q-30 -34 -102.5 -60t-179.5 -26q-126 0 -218.5 65t-141.5 172.5t-49 231.5q0 163 63.5 286.5t183.5 192t286 68.5q162 0 276.5 -79z" />
    <glyph glyph-name="fraction" unicode="&#x2044;" horiz-adv-x="1026" 
d="M682 1530h200l-542 -1530h-197z" />
    <glyph glyph-name="onehalf" unicode="&#xbd;" horiz-adv-x="2479" 
d="M2283 162v-165h-748l-43 110q95 50 216.5 141.5t213.5 206t92 221.5q0 92 -50 137.5t-136 45.5q-81 0 -148 -35.5t-127 -106.5l-91 109q33 49 93 92.5t140.5 71.5t170.5 28q121 0 202.5 -43.5t120.5 -112.5t39 -148q0 -154 -108.5 -295.5t-294.5 -261.5zM397 1402
q-68 -19 -112 -27l-40 121q56 16 127.5 53t134.5 77.5t90 62.5l105 -25v-1001h-211v763q-38 -8 -94 -24zM1288 1530h200l-542 -1530h-197z" />
    <glyph glyph-name="onequarter" unicode="&#xbc;" horiz-adv-x="2479" 
d="M2075 234v-282h-204l1 282h-499l-52 94l482 811h68l131 -77l-396 -608l-42 -69h308v3l8 249l195 20v-272h194l1 -151h-195zM1287 1530h200l-542 -1530h-197zM397 1402q-68 -19 -112 -27l-40 121q56 16 127.5 53t134.5 77.5t90 62.5l105 -25v-1001h-211v763
q-38 -8 -94 -24z" />
    <glyph glyph-name="threequarters" unicode="&#xbe;" horiz-adv-x="2479" 
d="M2075 234v-282h-204l1 282h-499l-52 94l482 811h68l131 -77l-396 -608l-42 -69h308v3l8 249l195 20v-272h194l1 -151h-195zM263.5 731.5q34.5 -4.5 91.5 -4.5q139 0 203.5 47t64.5 147q0 79 -59 127t-156 53l-88 -28l-37 128q30 6 75 21.5t80 31.5q126 57 126 166
q0 61 -43 93.5t-112 32.5q-50 0 -115.5 -21.5t-116.5 -57.5l-62 119q42 34 102 58t118 35.5t93 11.5q112 0 187.5 -32t112.5 -85.5t37 -120.5q0 -87 -52 -156t-156 -114q89 -4 151.5 -41t94 -94.5t31.5 -120.5q0 -100 -47.5 -178.5t-147 -124.5t-248.5 -46q-49 0 -97 7.5
t-112 20.5l-14 142q61 -12 95.5 -16.5zM1287 1530h200l-542 -1530h-197z" />
    <glyph glyph-name="one.numr" horiz-adv-x="1026" 
d="M374 1402q-68 -19 -112 -27l-40 121q56 16 127.5 53t134.5 77.5t90 62.5l105 -25v-1001h-211v763q-38 -8 -94 -24z" />
    <glyph glyph-name="two.numr" horiz-adv-x="1194" 
d="M996 830v-165h-748l-43 110q95 50 216.5 141.5t213.5 206t92 221.5q0 92 -50 137.5t-136 45.5q-81 0 -148 -35.5t-127 -106.5l-91 109q33 49 93 92.5t140.5 71.5t170.5 28q121 0 202.5 -43.5t120.5 -112.5t39 -148q0 -154 -108.5 -295.5t-294.5 -261.5z" />
    <glyph glyph-name="three.numr" horiz-adv-x="1194" 
d="M410.5 731.5q34.5 -4.5 91.5 -4.5q139 0 203.5 47t64.5 147q0 79 -59 127t-156 53l-88 -28l-37 128q30 6 75 21.5t80 31.5q126 57 126 166q0 61 -43 93.5t-112 32.5q-50 0 -115.5 -21.5t-116.5 -57.5l-62 119q42 34 102 58t118 35.5t93 11.5q112 0 187.5 -32t112.5 -85.5
t37 -120.5q0 -87 -52 -156t-156 -114q89 -4 151.5 -41t94 -94.5t31.5 -120.5q0 -100 -47.5 -178.5t-147 -124.5t-248.5 -46q-49 0 -97 7.5t-112 20.5l-14 142q61 -12 95.5 -16.5z" />
    <glyph glyph-name="four.numr" horiz-adv-x="1151" 
d="M861 875v-282h-204l1 282h-499l-52 94l482 811h68l131 -77l-396 -608l-42 -69h308v3l8 249l195 20v-272h194l1 -151h-195z" />
    <glyph glyph-name="uni00B9" unicode="&#xb9;" horiz-adv-x="1026" 
d="M374 1402q-68 -19 -112 -27l-40 121q56 16 127.5 53t134.5 77.5t90 62.5l105 -25v-1001h-211v763q-38 -8 -94 -24z" />
    <glyph glyph-name="uni00B2" unicode="&#xb2;" horiz-adv-x="1194" 
d="M996 830v-165h-748l-43 110q95 50 216.5 141.5t213.5 206t92 221.5q0 92 -50 137.5t-136 45.5q-81 0 -148 -35.5t-127 -106.5l-91 109q33 49 93 92.5t140.5 71.5t170.5 28q121 0 202.5 -43.5t120.5 -112.5t39 -148q0 -154 -108.5 -295.5t-294.5 -261.5z" />
    <glyph glyph-name="uni00B3" unicode="&#xb3;" horiz-adv-x="1194" 
d="M410.5 731.5q34.5 -4.5 91.5 -4.5q139 0 203.5 47t64.5 147q0 79 -59 127t-156 53l-88 -28l-37 128q30 6 75 21.5t80 31.5q126 57 126 166q0 61 -43 93.5t-112 32.5q-50 0 -115.5 -21.5t-116.5 -57.5l-62 119q42 34 102 58t118 35.5t93 11.5q112 0 187.5 -32t112.5 -85.5
t37 -120.5q0 -87 -52 -156t-156 -114q89 -4 151.5 -41t94 -94.5t31.5 -120.5q0 -100 -47.5 -178.5t-147 -124.5t-248.5 -46q-49 0 -97 7.5t-112 20.5l-14 142q61 -12 95.5 -16.5z" />
    <glyph glyph-name="uni2074" unicode="&#x2074;" horiz-adv-x="1151" 
d="M861 875v-282h-204l1 282h-499l-52 94l482 811h68l131 -77l-396 -608l-42 -69h308v3l8 249l195 20v-272h194l1 -151h-195z" />
    <glyph glyph-name="asterisk" unicode="*" horiz-adv-x="1208" 
d="M561 1080l-126 -121l-218 -146l-96 164l231 124l165 53q-27 9 -82 25t-84 24l-234 118l93 165l220 -145l129 -113q-5 27 -18.5 82.5t-20.5 84.5l-19 265h192l-13 -262l-34 -168q20 19 61.5 58.5t63.5 59.5l220 146l95 -163l-232 -121l-164 -55l165 -49l236 -115l-97 -170
l-217 144l-131 113l39 -168l21 -262l-192 -1l12 263z" />
    <glyph glyph-name="backslash" unicode="\" horiz-adv-x="854" 
d="M810 -363h-198l-570 1962h198z" />
    <glyph glyph-name="periodcentered" unicode="&#xb7;" horiz-adv-x="602" 
d="M170 803q23 39 60 62.5t78 23.5q70 0 108.5 -45t38.5 -111q0 -47 -22.5 -86t-60 -61.5t-79.5 -22.5q-38 0 -72 20.5t-54 56t-20 78.5q0 46 23 85z" />
    <glyph glyph-name="bullet" unicode="&#x2022;" horiz-adv-x="855" 
d="M238.5 832q31.5 55 85 87.5t114.5 32.5q57 0 105.5 -28t76.5 -76t28 -107q0 -65 -31.5 -120.5t-84.5 -88.5t-114 -33q-57 0 -105.5 29t-77 78t-28.5 106q0 65 31.5 120z" />
    <glyph glyph-name="colon" unicode=":" horiz-adv-x="602" 
d="M170 218q23 39 60 62.5t78 23.5q70 0 108.5 -45t38.5 -111q0 -47 -22.5 -86t-60 -61.5t-79.5 -22.5q-38 0 -72 20.5t-54 56t-20 78.5q0 46 23 85zM170 1014q23 39 60 62.5t78 23.5q70 0 108.5 -45t38.5 -111q0 -47 -22.5 -86t-60 -61.5t-79.5 -22.5q-38 0 -72 20.5
t-54 56t-20 78.5q0 46 23 85z" />
    <glyph glyph-name="comma" unicode="," horiz-adv-x="602" 
d="M244.5 -281.5q37.5 72.5 37.5 157.5q0 42 -17.5 88t-46 78t-58.5 35v63l139 131q66 -24 109 -77.5t62.5 -119t19.5 -128.5q0 -106 -36 -198t-96.5 -156.5t-132.5 -91.5l-74 92v26q56 28 93.5 100.5z" />
    <glyph glyph-name="ellipsis" unicode="&#x2026;" horiz-adv-x="2047" 
d="M210 218q23 39 60 62.5t78 23.5q70 0 108.5 -45t38.5 -111q0 -47 -22.5 -86t-60 -61.5t-79.5 -22.5q-38 0 -72 20.5t-54 56t-20 78.5q0 46 23 85zM893 219q23 39 60 62t77 23q70 0 108.5 -45t38.5 -111q0 -47 -22.5 -86t-60 -61.5t-79.5 -22.5q-38 0 -71.5 20.5
t-53.5 56.5t-20 80q0 45 23 84zM1575 219q23 39 60 62t78 23q70 0 108.5 -44.5t38.5 -110.5q0 -47 -22.5 -86.5t-60 -62t-79.5 -22.5q-38 0 -72 20.5t-54 56.5t-20 80q0 45 23 84z" />
    <glyph glyph-name="exclam" unicode="!" horiz-adv-x="602" 
d="M430 1780l-24 -1274h-196l-28 1274h248zM170 219q23 39 60 62t77 23q70 0 109 -44.5t39 -110.5q0 -47 -22.5 -86.5t-60 -62t-79.5 -22.5q-39 0 -72.5 20.5t-53.5 56.5t-20 80q0 45 23 84z" />
    <glyph glyph-name="exclamdbl" unicode="&#x203c;" horiz-adv-x="1386" 
d="M471 1780l-24 -1274h-196l-28 1274h248zM211 219q23 39 60 62t77 23q70 0 109 -44.5t39 -110.5q0 -47 -22.5 -86.5t-60 -62t-79.5 -22.5q-39 0 -72.5 20.5t-53.5 56.5t-20 80q0 45 23 84zM1167 1780l-24 -1274h-196l-28 1274h248zM907 219q23 39 60 62t77 23
q70 0 109 -44.5t39 -110.5q0 -47 -22.5 -86.5t-60 -62t-79.5 -22.5q-39 0 -72.5 20.5t-53.5 56.5t-20 80q0 45 23 84z" />
    <glyph glyph-name="exclamdown" unicode="&#xa1;" horiz-adv-x="602" 
d="M432 1125q-23 -39 -60 -62t-77 -23q-70 0 -109 44.5t-39 110.5q0 47 22.5 86.5t60 62t79.5 22.5q39 0 72.5 -20.5t53.5 -56.5t20 -80q0 -45 -23 -84zM172 -436l24 1274h196l28 -1274h-248z" />
    <glyph glyph-name="numbersign" unicode="#" horiz-adv-x="1563" 
d="M1142 880l-34 -369h226v-156h-240l-33 -355h-185l31 355h-310l-33 -355h-187l32 355h-202v156h216l33 369h-215v153h229l31 340h191l-32 -340h307l30 340h190l-31 -340h222v-153h-236zM954 880h-308l-34 -369h309z" />
    <glyph glyph-name="period" unicode="." horiz-adv-x="602" 
d="M170 218q23 39 60 62.5t78 23.5q70 0 108.5 -45t38.5 -111q0 -47 -22.5 -86t-60 -61.5t-79.5 -22.5q-38 0 -72 20.5t-54 56t-20 78.5q0 46 23 85z" />
    <glyph glyph-name="question" unicode="?" horiz-adv-x="1047" 
d="M304 872q31 47 76.5 83t120.5 85q63 41 100.5 69t66 62t35.5 72q14 59 14 107q0 97 -50 165t-143.5 103.5t-221.5 35.5q-113 0 -181 -17v160q19 14 83.5 28t132.5 14q201 0 335 -63.5t198 -170.5t64 -238q0 -56 -12 -113q-13 -77 -53 -135t-88.5 -96.5t-123.5 -88.5
q-57 -37 -89 -62t-55 -55.5t-26 -67.5q-2 -28 -2 -39q0 -45 9.5 -86t30.5 -111l6 -19h-167q-35 43 -60.5 117.5t-28.5 158.5q-2 55 29 102zM356 211.5q23 38.5 59.5 61t75.5 22.5q68 0 106 -43.5t38 -107.5q0 -46 -22.5 -84t-59 -60t-77.5 -22q-37 0 -70 20t-53 54.5
t-20 76.5q0 44 23 82.5z" />
    <glyph glyph-name="questiondown" unicode="&#xbf;" horiz-adv-x="1047" 
d="M690 1312.5q-23 -38.5 -59.5 -61t-75.5 -22.5q-68 0 -106 43.5t-38 107.5q0 46 22.5 84t59 60t77.5 22q37 0 70 -20t53 -54.5t20 -76.5q0 -44 -23 -82.5zM742 652q-31 -47 -76.5 -83t-120.5 -85q-63 -41 -100.5 -69t-66 -62t-35.5 -72q-14 -59 -14 -107q0 -97 50 -165
t143.5 -103.5t221.5 -35.5q113 0 181 17v-160q-19 -14 -83.5 -28t-132.5 -14q-201 0 -335 63.5t-198 170.5t-64 238q0 56 12 113q13 77 53 135t88.5 96.5t123.5 88.5q57 37 89 62t55 55.5t26 67.5q2 28 2 39q0 45 -9.5 86t-30.5 111l-6 19h167q35 -43 60.5 -117.5
t28.5 -158.5q2 -55 -29 -102z" />
    <glyph glyph-name="quotedbl" unicode="&#x22;" horiz-adv-x="1284" 
d="M507 1685l-32 -719h-177l-33 719h242zM1018 1685l-32 -719h-177l-33 719h242z" />
    <glyph glyph-name="quotesingle" unicode="'" horiz-adv-x="772" 
d="M507 1685l-32 -719h-177l-33 719h242z" />
    <glyph glyph-name="semicolon" unicode=";" horiz-adv-x="602" 
d="M244.5 -281.5q37.5 72.5 37.5 157.5q0 42 -17.5 88t-46 78t-58.5 35v63l139 131q66 -24 109 -77.5t62.5 -119t19.5 -128.5q0 -106 -36 -198t-96.5 -156.5t-132.5 -91.5l-74 92v26q56 28 93.5 100.5zM170 1014q23 39 60 62.5t78 23.5q70 0 108.5 -45t38.5 -111
q0 -47 -22.5 -86t-60 -61.5t-79.5 -22.5q-38 0 -72 20.5t-54 56t-20 78.5q0 46 23 85z" />
    <glyph glyph-name="slash" unicode="/" horiz-adv-x="854" 
d="M810 1599l-570 -1962h-198l570 1962h198z" />
    <glyph glyph-name="underscore" unicode="_" horiz-adv-x="1692" 
d="M1732 -279v-137h-1772v137h1772z" />
    <glyph glyph-name="braceleft" unicode="{" horiz-adv-x="972" 
d="M492 882q-30 -29 -77.5 -52.5t-119.5 -52.5q142 -55 201 -117q40 -43 40 -88v-621h266v-112q-65 -18 -130.5 -26.5t-146.5 -8.5q-78 0 -120.5 23t-60 77.5t-17.5 155.5v511q0 28 -41 57.5t-100.5 51t-110.5 26.5v142q52 5 111.5 24.5t100 47t40.5 55.5v511
q0 101 17.5 155.5t60 77.5t120.5 23q63 0 116 -5t127 -15l34 -4v-122h-266v-620q0 -53 -44 -94z" />
    <glyph glyph-name="braceright" unicode="}" horiz-adv-x="972" 
d="M685.5 919.5q40.5 -27.5 100 -47t111.5 -24.5v-142q-51 -5 -110.5 -26.5t-100.5 -51t-41 -57.5v-511q0 -101 -17.5 -155.5t-60 -77.5t-120.5 -23q-81 0 -146.5 8.5t-130.5 26.5v112h266v621q0 45 40 88q59 62 201 117q-72 29 -119.5 52.5t-77.5 52.5q-44 41 -44 94v620
h-266v122l34 4q74 10 127 15t116 5q78 0 120.5 -23t60 -77.5t17.5 -155.5v-511q0 -28 40.5 -55.5z" />
    <glyph glyph-name="bracketleft" unicode="[" horiz-adv-x="837" 
d="M200.5 1640.5q15.5 52.5 55.5 74.5t119 22q64 0 113 -4t115 -13l62 -7v-120h-268v-1642l268 -2v-116q-91 -13 -149 -18.5t-141 -5.5q-79 0 -119 22t-55.5 74.5t-15.5 154.5v1426q0 102 15.5 154.5z" />
    <glyph glyph-name="bracketright" unicode="]" horiz-adv-x="837" 
d="M652 60q0 -102 -15.5 -154.5t-55.5 -74.5t-119 -22q-83 0 -141 5.5t-149 18.5v116l268 2v1642h-268v120l62 7q66 9 115 13t113 4q79 0 119 -22t55.5 -74.5t15.5 -154.5v-1426z" />
    <glyph glyph-name="parenleft" unicode="(" horiz-adv-x="846" 
d="M205 1201q85 218 192 356t170 173l151 -74q-59 -46 -144.5 -161t-159 -313.5t-80.5 -458.5l-1 -48q0 -255 70 -450.5t158 -312t157 -167.5l-151 -75q-70 46 -173 171.5t-188.5 351t-85.5 530.5q0 260 85 478z" />
    <glyph glyph-name="parenright" unicode=")" horiz-adv-x="846" 
d="M641 226q-85 -218 -192 -356t-170 -173l-151 74q59 46 144.5 161t159 313.5t80.5 458.5l1 48q0 255 -70 450.5t-158 312t-157 167.5l151 75q70 -46 173 -171.5t188.5 -351t85.5 -530.5q0 -260 -85 -478z" />
    <glyph glyph-name="emdash" unicode="&#x2014;" horiz-adv-x="2343" 
d="M2103 860v-177h-1863v177h1863z" />
    <glyph glyph-name="endash" unicode="&#x2013;" horiz-adv-x="1692" 
d="M1452 860v-177h-1212v177h1212z" />
    <glyph glyph-name="hyphen" unicode="-" horiz-adv-x="1350" 
d="M1100 860v-177h-850v177h850z" />
    <glyph glyph-name="guillemotleft" unicode="&#xab;" horiz-adv-x="1936" 
d="M461 615l484 -352l-57 -159l-643 415v184l643 430l57 -163zM1192 615l484 -352l-57 -159l-643 415v184l643 430l57 -163z" />
    <glyph glyph-name="guillemotright" unicode="&#xbb;" horiz-adv-x="1936" 
d="M316 1133l643 -430v-184l-643 -415l-57 159l484 352l-484 355zM1690 703v-184l-643 -415l-57 159l484 352l-484 355l57 163z" />
    <glyph glyph-name="guilsinglleft" unicode="&#x2039;" horiz-adv-x="1204" 
d="M461 615l484 -352l-57 -159l-643 415v184l643 430l57 -163z" />
    <glyph glyph-name="guilsinglright" unicode="&#x203a;" horiz-adv-x="1204" 
d="M959 703v-184l-643 -415l-57 159l484 352l-484 355l57 163z" />
    <glyph glyph-name="quotedblbase" unicode="&#x201e;" horiz-adv-x="1029" 
d="M127 -424q34 36 55.5 116t21.5 156q0 52 -14 100t-35.5 82.5t-43.5 47.5v61l143 117q72 -35 114 -115t42 -210q0 -116 -30.5 -207.5t-73 -151t-83.5 -89.5l-96 61v32zM640 -424q34 36 55.5 116t21.5 156q0 52 -14 100t-35.5 82.5t-43.5 47.5v61l143 117q72 -35 114 -115
t42 -210q0 -116 -30.5 -207.5t-73 -151t-83.5 -89.5l-96 61v32z" />
    <glyph glyph-name="quotedblleft" unicode="&#x201c;" horiz-adv-x="1029" 
d="M131.5 1504.5q33.5 83.5 81.5 141.5t92 87l96 -61v-32q-43 -36 -70 -116.5t-27 -155.5q0 -49 17 -95t43 -79t53 -45v-62l-113 -127q-60 22 -107 73.5t-73 127t-26 165.5q0 95 33.5 178.5zM647.5 1504.5q33.5 83.5 81.5 141.5t92 87l96 -61v-32q-43 -36 -70 -116.5
t-27 -155.5q0 -49 17 -95t43 -79t53 -45v-62l-113 -127q-60 22 -107 73.5t-73 127t-26 165.5q0 95 33.5 178.5z" />
    <glyph glyph-name="quotedblright" unicode="&#x201d;" horiz-adv-x="1029" 
d="M127 1053q34 36 55.5 116t21.5 156q0 52 -14 100t-35.5 82.5t-43.5 47.5v61l143 117q72 -35 114 -115t42 -210q0 -116 -30.5 -207.5t-73 -151t-83.5 -89.5l-96 61v32zM643 1053q34 36 55.5 116t21.5 156q0 52 -14 100t-35.5 82.5t-43.5 47.5v61l143 117q72 -35 114 -115
t42 -210q0 -116 -30.5 -207.5t-73 -151t-83.5 -89.5l-96 61v32z" />
    <glyph glyph-name="quoteleft" unicode="&#x2018;" horiz-adv-x="520" 
d="M131.5 1504.5q33.5 83.5 81.5 141.5t92 87l96 -61v-32q-43 -36 -70 -116.5t-27 -155.5q0 -49 17 -95t43 -79t53 -45v-62l-113 -127q-60 22 -107 73.5t-73 127t-26 165.5q0 95 33.5 178.5z" />
    <glyph glyph-name="quotereversed" unicode="&#x201b;" horiz-adv-x="520" 
d="M417 1545q-27 -13 -53 -46t-43 -79t-17 -95q0 -75 27 -155.5t70 -116.5v-32l-96 -61q-44 29 -92 87t-81.5 141.5t-33.5 178.5q0 90 26 165.5t73 127t107 73.5l113 -127v-61z" />
    <glyph glyph-name="quoteright" unicode="&#x2019;" horiz-adv-x="520" 
d="M127 1053q34 36 55.5 116t21.5 156q0 52 -14 100t-35.5 82.5t-43.5 47.5v61l143 117q72 -35 114 -115t42 -210q0 -116 -30.5 -207.5t-73 -151t-83.5 -89.5l-96 61v32z" />
    <glyph glyph-name="quotesinglbase" unicode="&#x201a;" horiz-adv-x="520" 
d="M127 -450q34 36 55.5 116t21.5 156q0 52 -14 100t-35.5 82.5t-43.5 47.5v61l143 117q72 -35 114 -115t42 -210q0 -116 -30.5 -207.5t-73 -151t-83.5 -89.5l-96 61v32z" />
    <glyph glyph-name="uni00A0" unicode="&#xa0;" horiz-adv-x="655" 
 />
    <glyph glyph-name="uni20B5" unicode="&#x20b5;" horiz-adv-x="1390" 
d="M780 1815h147l-25 -280q88 -5 150 -17t119 -29l32 -8l-33 -206q-4 2 -36 19t-100 33t-149 20l-105 -1178q13 -1 41 -1q74 0 150 13t135 34.5t85 45.5l1 -197q-63 -25 -110 -41t-116.5 -27.5t-156.5 -11.5q-16 0 -46 2l-30 -340h-147l32 359q-161 39 -278.5 141.5
t-180.5 258t-63 348.5q0 233 88.5 406t238.5 269t332 108zM737 1343q-127 -19 -219 -94t-141 -197.5t-49 -282.5q0 -207 80.5 -357t226.5 -210z" />
    <glyph glyph-name="cent" unicode="&#xa2;" horiz-adv-x="1183" 
d="M892.5 24.5q-72.5 -27.5 -158.5 -36.5l-3 -204h-150l4 205q-134 17 -231 94.5t-147 200.5t-50 274q0 156 52 283t155.5 208.5t252.5 100.5l6 227h149l-5 -223q77 -6 135.5 -22.5t85.5 -34.5l-35 -174q-46 32 -108 47.5t-148 15.5t-160.5 -44t-120.5 -137.5t-46 -235.5
q0 -132 42 -226.5t115 -143.5t164 -49q79 0 154 20.5t118 46.5l45 -125q-43 -40 -115.5 -67.5z" />
    <glyph glyph-name="colonmonetary" unicode="&#x20a1;" horiz-adv-x="1329" 
d="M641 1815h117l-19 -280q35 3 68 3q47 0 69 -1l19 278h117l-19 -288q85 -11 180 -38l32 -8l-33 -206q-39 21 -78.5 36.5t-113.5 26.5l-77 -1166q94 9 176 34t115 55l1 -197q-77 -31 -144.5 -50.5t-160.5 -26.5l-22 -341h-117l22 339q-63 3 -136 16l-23 -355h-117l26 390
q-134 53 -230 155t-147 245t-51 317q0 204 68.5 362t187.5 259t270 140zM864 1348q-13 1 -40 1q-48 0 -98 -8l-76 -1144q66 -24 135 -28zM607 1304q-134 -63 -207 -201.5t-73 -333.5q0 -169 54.5 -301.5t155.5 -208.5z" />
    <glyph glyph-name="currency" unicode="&#xa4;" horiz-adv-x="1527" 
d="M1126 518l205 -206l-127 -127l-209 210q-105 -64 -231 -64q-120 0 -227 62l-211 -212l-127 127l206 207q-40 55 -61.5 121t-21.5 137t21 136.5t61 120.5l-205 205l126 128l210 -212q105 64 229 64t230 -63l214 213l127 -127l-209 -209q39 -55 60 -120t21 -136
q0 -141 -81 -255zM897.5 532.5q60.5 37.5 96 101.5t35.5 139t-35.5 138.5t-96 101t-132.5 37.5t-133 -37.5t-97 -101t-36 -138.5t36 -139t97 -101.5t133 -37.5t132.5 37.5z" />
    <glyph glyph-name="dollar" unicode="$" horiz-adv-x="1372" 
d="M1059 112.5q-110 -103.5 -302 -123.5l-2 -226h-163l2 223q-118 7 -218 33t-141 52l53 183q61 -38 161 -65.5t198 -27.5q148 0 225.5 51t77.5 160q0 72 -37.5 123t-103.5 91t-196 103q-167 81 -274 194t-107 264q0 175 112.5 269t288.5 116l2 230h163l-2 -226
q103 -5 178 -27.5t118 -49.5l-45 -176q-65 39 -133 59.5t-179 20.5q-76 0 -142 -20t-107 -62t-41 -104q0 -73 29 -121.5t89.5 -89t184.5 -104.5q128 -66 214.5 -124.5t146.5 -143.5t60 -196q0 -182 -110 -285.5z" />
    <glyph glyph-name="dong" unicode="&#x20ab;" horiz-adv-x="1332" 
d="M849 1521v173h223v-173h220v-168h-220v-1062h-164q-23 0 -23 40v70q-48 -45 -121 -77.5t-192 -32.5q-114 0 -208.5 49.5t-150.5 149.5t-56 246q0 161 60 276t174 175.5t273 60.5q103 0 189 -18l-4 123h-338v168h338zM849 1013q-1 2 -12 16.5t-57 25t-120 10.5
q-108 0 -166 -43t-78 -112.5t-20 -167.5q0 -92 29.5 -152t74 -87.5t90.5 -27.5q115 0 166.5 22t69 41t23.5 24v451zM1220 197v-197h-1105v197h1105z" />
    <glyph glyph-name="Euro" unicode="&#x20ac;" horiz-adv-x="1505" 
d="M1371 60q-23 -4 -48.5 -13.5t-30.5 -11.5q-49 -19 -90.5 -31.5t-111 -22t-164.5 -9.5q-167 0 -292 65.5t-203 186.5t-108 287h-209v143h194q-2 44 -2 66q0 89 10 163h-170v143h197q63 238 225 370.5t399 141.5q16 1 45 1q89 0 146.5 -11.5t120.5 -32.5q36 -12 60 -18
l-53 -174q-66 36 -133.5 52t-193.5 16q-143 0 -244 -88.5t-143 -256.5h529v-143h-552q-4 -43 -4 -99q0 -74 4 -130h518v-143h-502q32 -180 124 -279.5t266 -99.5q105 0 202 26.5t154 66.5z" />
    <glyph glyph-name="florin" unicode="&#x192;" horiz-adv-x="1169" 
d="M217 972l8 114l209 54l8 64q30 250 155.5 365.5t309.5 115.5q60 0 97.5 -5.5t52.5 -12.5l-13 -179q-15 9 -57.5 14t-107.5 5q-87 0 -143.5 -53.5t-71.5 -185.5l-15 -128h299l-13 -168h-299l-111 -1328h-215l112 1328h-205z" />
    <glyph glyph-name="franc" unicode="&#x20a3;" horiz-adv-x="1093" 
d="M195 427v1095h879v-179h-645v-491h484v-179h-484v-246h251v-183h-251v-244h-234v244h-205v183h205z" />
    <glyph glyph-name="uni20B2" unicode="&#x20b2;" horiz-adv-x="1490" 
d="M693 1762h207v-226q75 -4 127.5 -13t117.5 -25q56 -14 89 -20l-10 -207q-81 42 -177.5 63.5t-250.5 21.5q-133 0 -237 -69t-162.5 -199t-58.5 -308q0 -179 51.5 -318.5t155.5 -220t257 -80.5q89 0 172.5 14.5t123.5 41.5v370l-273 13v167h496v-674q-21 -1 -45 -8.5
t-60 -22.5q-82 -31 -152.5 -49.5t-174.5 -25.5l-2 -245h-207l2 251q-183 27 -315 130.5t-200.5 266t-68.5 363.5q0 230 76.5 396.5t210.5 261.5t308 119v232z" />
    <glyph glyph-name="lira" unicode="&#x20a4;" horiz-adv-x="1501" 
d="M434 988v56q0 148 57.5 260t165.5 173t257 61q116 0 198 -28t134 -71l-107 -166q-49 43 -106 67t-141 24q-102 0 -166.5 -75t-63.5 -276v-25h381v-138h-380l1 -130h357v-138h-357q-2 -148 -18 -233.5t-59 -131.5q50 -9 119 -33q63 -21 112 -31.5t122 -10.5q246 0 246 193
q0 36 -12 68.5t-30 54t-34 27.5l163 82q27 -15 57.5 -51t51.5 -87.5t21 -109.5q0 -339 -433 -339q-112 0 -197.5 21t-178.5 57q-56 21 -84.5 29t-53.5 5q-33 -37 -89.5 -65.5t-111.5 -28.5q-24 0 -50 10.5t-43.5 29.5t-17.5 44q0 74 67.5 123t194.5 56q17 37 22.5 89
t5.5 122v110h-225v138h225v130h-203v138h203z" />
    <glyph glyph-name="uni20BA" unicode="&#x20ba;" horiz-adv-x="1416" 
d="M1306 664q0 -200 -95.5 -350.5t-263.5 -232t-380 -81.5h-225v535l-246 -106v167l246 106v217l-256 -112v177l256 112v442h225v-344l469 205v-177l-469 -205v-217l447 193v-167l-447 -193v-449q151 0 268 54t186 173.5t69 307.5h216v-55z" />
    <glyph glyph-name="uni20A6" unicode="&#x20a6;" horiz-adv-x="1865" 
d="M302 1059v463h213l322 -463h527v463h215v-463h271v-147h-271v-295h239v-147h-239v-470h-217l-330 470h-514v-470h-216v470h-247v147h247v295h-224v147h224zM511 1059h112l-121 180zM929 617l-206 295h-205v-295h411zM1364 617v295h-425l205 -295h220zM1380 268l-11 202
h-124z" />
    <glyph glyph-name="peseta" unicode="&#x20a7;" horiz-adv-x="1371" 
d="M194 1065v457h110q53 0 169 8q126 8 200 8q251 0 389 -115t145 -358h164v-147h-174q-35 -194 -181 -297.5t-392 -103.5q-83 0 -159 4l-38 1v-522h-233v918h-181v147h181zM976 1065q-6 157 -92.5 232t-251.5 75q-130 0 -205 -19v-288h549zM842 738q92 50 122 180h-537
v-220q73 -10 185 -10q138 0 230 50z" />
    <glyph glyph-name="uni20B1" unicode="&#x20b1;" horiz-adv-x="1377" 
d="M195 1175v347h110q53 0 169 8q126 8 200 8q220 0 354.5 -88.5t168.5 -274.5h174v-107h-163q1 -9 1 -27q0 -41 -5 -86h167v-107h-189q-51 -162 -192.5 -247.5t-365.5 -85.5q-51 0 -165 3l-31 1v-519h-233v848h-165v107h165v113h-165v107h165zM960 1175q-30 101 -113 149
t-217 48q-127 0 -202 -19v-178h532zM428 1068v-113h544q6 38 6 84q0 19 -1 29h-549zM816 721q85 36 127 127h-515v-153q73 -10 184 -10q119 0 204 36z" />
    <glyph glyph-name="uni20B9" unicode="&#x20b9;" horiz-adv-x="1390" 
d="M952.5 65q-35.5 65 -95.5 202q-66 150 -110 235.5t-91 127.5q-133 -13 -274 -13q-72 0 -128.5 3t-82.5 6v142q29 -3 137.5 -4t233.5 -1q80 0 150.5 29t121.5 86t72 137h-715v159h728q0 66 -12.5 106t-56 65.5t-133.5 27.5h-526v149h1159v-149h-290q55 -71 63 -199h195
v-159h-207q-28 -116 -104 -198.5t-170 -127.5q54 -33 98 -89.5t77.5 -121t78.5 -164.5q51 -114 90 -186.5t88 -127.5h-233q-28 0 -63.5 65z" />
    <glyph glyph-name="uni20AA" unicode="&#x20aa;" horiz-adv-x="2183" 
d="M480 1522h605q127 0 194.5 -40.5t94 -130t26.5 -252.5v-724h-184v743q0 86 -10 137t-49 82t-119 31h-390v-1368h-168v1522zM1743 0h-515q-139 0 -225 42t-128 134.5t-42 247.5v734h184v-783q0 -74 23 -119.5t81 -68t164 -22.5h290v1357h168v-1522z" />
    <glyph glyph-name="sterling" unicode="&#xa3;" horiz-adv-x="1532" 
d="M1321.5 512.5q29.5 -35.5 50.5 -86.5t21 -109q0 -172 -109 -254.5t-321 -82.5q-111 0 -193.5 21t-178.5 57q-54 20 -83 28.5t-54 5.5q-34 -37 -89.5 -65.5t-110.5 -28.5q-23 0 -48.5 10.5t-42.5 29t-17 42.5q0 73 66.5 122.5t195.5 55.5q17 38 22.5 90t5.5 120v288h-181
v152h181v137q0 148 56.5 259.5t163 172.5t253.5 61q115 0 196 -27.5t132 -71.5l-104 -158q-50 43 -106.5 67t-140.5 24q-102 0 -167 -76.5t-64 -280.5l1 -107h352v-152h-351v-35v-77q0 -185 -15 -282.5t-62 -148.5q42 -7 78.5 -19t42.5 -14q64 -22 113 -32.5t123 -10.5
q248 0 248 196q0 36 -12 68.5t-29.5 54.5t-34.5 27l156 80q27 -15 56.5 -50.5z" />
    <glyph glyph-name="uni20A9" unicode="&#x20a9;" horiz-adv-x="1928" 
d="M205 850l-183 672h239l162 -672h265l193 672h172l196 -672h272l152 672h233l-172 -672h173v-147h-211l-74 -289h285v-147h-322l-72 -282h-228l-82 282h-479l-82 -282h-202l-77 282h-324v147h284l-78 289h-206v147h166zM1035 850l-35 121l-35 188l-35 -189l-35 -120h140z
M645 703h-186l39 -161l23 -128h55l23 128zM1161 414l-84 289h-225l-85 -289h394zM1487 703h-195l47 -161l30 -128h60l22 127zM549 267h-2l1 -5zM1404 263l1 4h-2z" />
    <glyph glyph-name="yen" unicode="&#xa5;" horiz-adv-x="1532" 
d="M920 810h319v-143h-360v-231h360v-143h-360v-293h-220v293h-385v143h385v231h-385v143h337l-447 712h238l304 -525l65 -134l61 141l312 518h233z" />
    <glyph glyph-name="uni2126" unicode="&#x2126;" horiz-adv-x="1804" 
d="M1620 154v-154h-581v151q86 55 158 158t115.5 243t43.5 299q0 183 -67 302.5t-171.5 174.5t-222.5 55q-124 0 -232 -54t-176.5 -173.5t-68.5 -304.5q0 -156 51 -295.5t129.5 -243t161.5 -161.5v-151h-561l-1 154h333q-83 66 -160 174.5t-127 246.5t-50 284
q0 225 99.5 380t259.5 230.5t341 75.5q198 0 353 -79t243.5 -234t88.5 -373q0 -145 -42.5 -281t-114.5 -244.5t-160 -179.5h358z" />
    <glyph glyph-name="approxequal" unicode="&#x2248;" horiz-adv-x="1438" 
d="M278.5 494.5q44.5 49.5 110.5 83t143 33.5q48 0 88 -13t69.5 -32t68.5 -49q47 -38 81 -56t77 -18q66 0 114 30t88 84l103 -99q-21 -55 -63.5 -101t-107.5 -74t-146 -28q-48 0 -87 13t-66.5 31.5t-67.5 49.5q-47 38 -81 56.5t-78 18.5q-65 0 -108.5 -29.5t-84.5 -84.5
l-115 89q18 46 62.5 95.5zM277.5 953.5q44.5 49.5 110.5 83t143 33.5q48 0 88 -13t69.5 -32t68.5 -49q47 -38 81 -56t77 -18q66 0 114 30t88 84l103 -99q-21 -55 -63.5 -101t-107.5 -74t-146 -28q-48 0 -87 13t-66.5 31.5t-67.5 49.5q-47 38 -81 56.5t-78 18.5
q-65 0 -108.5 -29.5t-84.5 -84.5l-115 89q18 46 62.5 95.5z" />
    <glyph glyph-name="asciitilde" unicode="~" horiz-adv-x="1438" 
d="M278.5 853.5q44.5 49.5 110.5 83t143 33.5q48 0 88 -13t69.5 -32t68.5 -49q47 -38 81 -56t77 -18q66 0 114 30t88 84l103 -99q-21 -55 -63.5 -101t-107.5 -74t-146 -28q-48 0 -87 13t-66.5 31.5t-67.5 49.5q-47 38 -81 56.5t-78 18.5q-65 0 -108.5 -29.5t-84.5 -84.5
l-115 89q18 46 62.5 95.5z" />
    <glyph glyph-name="uni2219" unicode="&#x2219;" horiz-adv-x="602" 
d="M143.5 819q27.5 47 72 75t93.5 28q57 0 97 -25.5t60 -68.5t20 -95q0 -56 -27 -103t-72 -73.5t-96 -26.5q-46 0 -86.5 24.5t-64.5 67.5t-24 96q0 54 27.5 101z" />
    <glyph glyph-name="divide" unicode="&#xf7;" horiz-adv-x="1393" 
d="M574.5 1249q23.5 37 61.5 58.5t79 21.5q68 0 105 -39.5t37 -100.5q0 -46 -23 -82.5t-61 -57t-81 -20.5q-38 0 -70.5 17t-51.5 49t-19 73q0 44 23.5 81zM1164 858v-170h-935v170h935zM573.5 444q23.5 37 61.5 58.5t79 21.5q68 0 105 -39t37 -100q0 -46 -23 -82.5t-61 -57
t-81 -20.5q-38 0 -70.5 17t-51.5 48.5t-19 72.5q0 44 23.5 81z" />
    <glyph glyph-name="uni2215" unicode="&#x2215;" horiz-adv-x="854" 
d="M911 1599l-775 -1962h-193l775 1962h193z" />
    <glyph glyph-name="equal" unicode="=" horiz-adv-x="1399" 
d="M1157 1116v-167h-915v167h915zM1157 599v-166h-915v166h915z" />
    <glyph glyph-name="greater" unicode="&#x3e;" horiz-adv-x="1368" 
d="M1200 850v-154l-966 -444v208l731 313l-731 318v205z" />
    <glyph glyph-name="greaterequal" unicode="&#x2265;" horiz-adv-x="1368" 
d="M1208 850v-155l-970 -431v203l741 306l-741 306v202zM238 162h970v-162h-970v162z" />
    <glyph glyph-name="uni2206" unicode="&#x2206;" horiz-adv-x="1577" 
d="M743 1508h32l746 -1481l-16 -27h-1436l-14 22zM768 1123l-428 -949h880z" />
    <glyph glyph-name="infinity" unicode="&#x221e;" horiz-adv-x="1804" 
d="M1549 954q92 -54 136.5 -140t44.5 -183q0 -127 -51 -218.5t-147.5 -139.5t-231.5 -48q-93 0 -165 32.5t-124.5 84t-107.5 125.5q-77 -107 -184 -174t-235 -67q-123 0 -216.5 51.5t-143.5 137.5t-50 187q0 134 56 225.5t151 136t213 44.5q96 0 171 -33.5t130.5 -87
t112.5 -129.5q78 109 184.5 179.5t230.5 70.5q134 0 226 -54zM663.5 436q69.5 58 140.5 164q-56 81 -92.5 127.5t-87 81.5t-110.5 35q-81 0 -135.5 -32t-80.5 -84.5t-26 -114.5q0 -66 27 -119t82 -84.5t135 -31.5q78 0 147.5 58zM1442.5 410q44.5 33 67 86.5t22.5 116.5
t-28.5 115.5t-83 83.5t-130.5 31q-80 0 -145.5 -56.5t-135.5 -163.5q51 -73 96.5 -124t104 -86.5t124.5 -35.5q64 0 108.5 33z" />
    <glyph glyph-name="integral" unicode="&#x222b;" horiz-adv-x="1042" 
d="M194 -261q34 -34 88 -63.5t130 -29.5q80 0 129.5 27.5t75.5 98t26 198.5q0 92 -26.5 188t-65.5 184t-106 223q-68 138 -109.5 232.5t-70 199.5t-28.5 206q0 142 47.5 250.5t144 170t237.5 61.5q102 0 178.5 -31t119.5 -96l-112 -113q-23 33 -73.5 54.5t-117.5 21.5
q-223 0 -223 -319q0 -91 26.5 -187t65.5 -184.5t104 -220.5q68 -138 109.5 -232.5t70 -200t28.5 -207.5q0 -227 -94.5 -357.5t-308.5 -130.5q-106 0 -195.5 36.5t-132.5 86.5z" />
    <glyph glyph-name="less" unicode="&#x3c;" horiz-adv-x="1368" 
d="M1134 1091l-731 -318l731 -313v-208l-966 444v154l966 446v-205z" />
    <glyph glyph-name="lessequal" unicode="&#x2264;" horiz-adv-x="1368" 
d="M1130 1079l-741 -306l741 -306v-203l-970 431v155l970 431v-202zM160 162h970v-162h-970v162z" />
    <glyph glyph-name="logicalnot" unicode="&#xac;" horiz-adv-x="1470" 
d="M1230 852v-529h-200v365h-790v164h990z" />
    <glyph glyph-name="uni00B5" unicode="&#xb5;" horiz-adv-x="1360" 
d="M1256 87q-10 -14 -41.5 -39.5t-77 -45.5t-94.5 -20q-58 0 -91 32.5t-29 105.5q-35 -39 -67 -66.5t-83 -48.5t-118 -21q-99 0 -163.5 23.5t-108.5 80.5l32 -459h-205v1511h219v-741q0 -90 26.5 -143t80 -76t139.5 -23q55 0 112 26t106 62v895h220v-906q0 -44 8 -60t26 -16
q33 0 78 27z" />
    <glyph glyph-name="minus" unicode="&#x2212;" horiz-adv-x="1350" 
d="M1100 860v-177h-850v177h850z" />
    <glyph glyph-name="multiply" unicode="&#xd7;" horiz-adv-x="1370" 
d="M234 1119l130 128l322 -354l322 354l130 -128l-338 -342l338 -338l-130 -128l-322 343l-322 -343l-130 128l338 335z" />
    <glyph glyph-name="notequal" unicode="&#x2260;" horiz-adv-x="1399" 
d="M853 949l-126 -350h430v-166h-492l-85 -230h-170l84 230h-252v166h313l126 350h-439v167h502l76 203h172l-77 -203h242v-167h-304z" />
    <glyph glyph-name="partialdiff" unicode="&#x2202;" horiz-adv-x="1367" 
d="M940 1561.5q152 -123.5 219 -318.5t67 -421q0 -241 -54.5 -432t-178.5 -305.5t-323 -114.5q-137 0 -249.5 58.5t-180 166.5t-74.5 252q-1 14 -1 42q0 175 76.5 302t207.5 193t293 66q147 0 269 -45q-26 237 -146.5 376.5t-359.5 139.5q-62 0 -129.5 -15t-105.5 -39
l-73 126q63 45 161 68.5t189 23.5q241 0 393 -123.5zM948.5 336q69.5 204 69.5 475v28q-63 33 -132 45.5t-161 12.5q-87 0 -167.5 -43t-131 -130t-50.5 -212q0 -20 1 -31q9 -164 79.5 -256.5t231.5 -92.5q191 0 260.5 204z" />
    <glyph glyph-name="percent" unicode="%" horiz-adv-x="1962" 
d="M1397 1530l-650 -1530h-190l650 1530h190zM129.5 1301.5q54.5 95.5 144.5 145t195 49.5q115 0 192 -54.5t114 -147.5t37 -211q0 -130 -54 -224.5t-143.5 -144t-192.5 -49.5q-107 0 -185.5 55.5t-120 149t-41.5 205.5q0 131 54.5 226.5zM571.5 1275.5
q-45.5 74.5 -125.5 74.5q-84 0 -130 -71.5t-46 -195.5q0 -78 20.5 -139.5t59.5 -96.5t92 -35q83 0 129 70t46 194q0 125 -45.5 199.5zM1204.5 686.5q54.5 95.5 145 145t195.5 49.5q115 0 191.5 -54.5t113.5 -147.5t37 -211q0 -130 -54 -224.5t-144 -143.5t-194 -49
q-105 0 -183.5 55.5t-120 149t-41.5 204.5q0 131 54.5 226.5zM1647 661.5q-45 74.5 -126 74.5q-84 0 -129.5 -71.5t-45.5 -196.5q0 -78 20 -139.5t59 -96.5t92 -35q84 0 129.5 70t45.5 194q0 126 -45 200.5z" />
    <glyph glyph-name="perthousand" unicode="&#x2030;" horiz-adv-x="2800" 
d="M1397 1530l-650 -1530h-190l650 1530h190zM129.5 1301.5q54.5 95.5 144.5 145t195 49.5q115 0 192 -54.5t114 -147.5t37 -211q0 -130 -54 -224.5t-143.5 -144t-192.5 -49.5q-107 0 -185.5 55.5t-120 149t-41.5 205.5q0 131 54.5 226.5zM571.5 1275.5
q-45.5 74.5 -125.5 74.5q-84 0 -130 -71.5t-46 -195.5q0 -78 20.5 -139.5t59.5 -96.5t92 -35q83 0 129 70t46 194q0 125 -45.5 199.5zM1204.5 686.5q54.5 95.5 145 145t195.5 49.5q115 0 191.5 -54.5t113.5 -147.5t37 -211q0 -130 -54 -224.5t-144 -143.5t-194 -49
q-105 0 -183.5 55.5t-120 149t-41.5 204.5q0 131 54.5 226.5zM2042.5 686.5q54.5 95.5 145 145t195.5 49.5q115 0 191.5 -54.5t113.5 -147.5t37 -211q0 -130 -54 -224.5t-144 -143.5t-194 -49q-105 0 -183.5 55.5t-120 149t-41.5 204.5q0 131 54.5 226.5zM1647 661.5
q-45 74.5 -126 74.5q-84 0 -129.5 -71.5t-45.5 -196.5q0 -78 20 -139.5t59 -96.5t92 -35q84 0 129.5 70t45.5 194q0 126 -45 200.5zM2485 661.5q-45 74.5 -126 74.5q-84 0 -129.5 -71.5t-45.5 -196.5q0 -78 20 -139.5t59 -96.5t92 -35q84 0 129.5 70t45.5 194
q0 126 -45 200.5z" />
    <glyph glyph-name="plus" unicode="+" horiz-adv-x="1393" 
d="M614 692l-165 -7h-220v177h220l165 -11l-7 172v228h178v-228l-8 -172l141 11h246v-177h-246l-141 7l8 -171v-236h-178v236z" />
    <glyph glyph-name="plusminus" unicode="&#xb1;" horiz-adv-x="1393" 
d="M614 692l-165 -7h-220v177h220l165 -11l-7 172v228h178v-228l-8 -172l141 11h246v-177h-246l-141 7l8 -171v-236h-178v236zM1142 165v-165h-892v165h892z" />
    <glyph glyph-name="product" unicode="&#x220f;" horiz-adv-x="1657" 
d="M1519 1356h-193v-1526h-225v1526h-545v-1526h-225v1526h-193v166h1381v-166z" />
    <glyph glyph-name="radical" unicode="&#x221a;" horiz-adv-x="1602" 
d="M1582 1870l-712 -2224h-174l-392 876l-125 -76l-95 158l183 112h194l313 -772l592 1926h216z" />
    <glyph glyph-name="summation" unicode="&#x2211;" horiz-adv-x="1593" 
d="M1305 -14v-156h-1052l-26 54l551 791l-551 767l30 80h1033v-166h-772l490 -675l-475 -695h772z" />
    <glyph glyph-name="lozenge" unicode="&#x25ca;" horiz-adv-x="1175" 
d="M590 1516l535 -741v-13l-535 -762h-5l-535 762v13l536 741h4zM267 766l319 -473h3l319 476v3l-319 454h-3l-319 -454v-6z" />
    <glyph glyph-name="bar" unicode="|" horiz-adv-x="855" 
d="M529 1780v-1968h-203v1968h203z" />
    <glyph glyph-name="brokenbar" unicode="&#xa6;" horiz-adv-x="855" 
d="M529 1780v-830h-203v830h203zM529 641v-827h-203v827h203z" />
    <glyph glyph-name="at" unicode="@" horiz-adv-x="2218" 
d="M1286 225q0 37 6 88q-75 -143 -170 -230.5t-203 -87.5q-70 0 -134.5 47.5t-106 143.5t-41.5 232q0 150 60.5 299t186.5 247.5t311 98.5q69 0 130.5 -13.5t101.5 -41.5l172 31q-31 -117 -68 -291.5t-58 -310.5q-20 -135 -20 -193q0 -90 37 -90q75 0 155 88t133 236t53 318
q0 231 -79.5 364t-215 185t-323.5 52q-225 0 -414 -121.5t-299.5 -338.5t-110.5 -492q0 -273 96.5 -446.5t255 -251t352.5 -77.5q134 0 238.5 25.5t171.5 58.5l39 -129q-67 -42 -198.5 -72.5t-270.5 -30.5q-247 0 -441.5 100.5t-306.5 303t-112 498.5q0 331 136 585.5
t373 394t530 139.5q224 0 395 -83t266 -243.5t95 -384.5q0 -254 -81 -444t-212 -291.5t-277 -101.5q-71 0 -107 47t-43 140q-2 26 -2 43zM1115 288q85 116 153 276t84 275q-23 38 -74 56.5t-103 18.5q-105 0 -183.5 -65t-121 -166t-45.5 -208q-4 -140 29.5 -221.5
t110.5 -81.5q65 0 150 116z" />
    <glyph glyph-name="ampersand" unicode="&#x26;" horiz-adv-x="1532" 
d="M1311 134q50 -15 118 -22v-113q-51 -15 -117 -15q-74 0 -131.5 19t-117.5 60q-67 -35 -150.5 -57t-160.5 -22q-181 0 -317 46t-212 138.5t-76 225.5q0 132 84.5 229.5t226.5 163.5q-79 105 -124 199t-45 202q0 110 51 190.5t144.5 124t218.5 43.5q113 0 198 -48
t130.5 -127t45.5 -169q0 -121 -39.5 -208.5t-113 -150t-186.5 -114.5q66 -92 169.5 -224t173.5 -210q82 85 82 228q0 90 -33 205h192q29 -101 29 -206q0 -219 -138 -342q48 -31 98 -46zM551 1342q-58 -48 -58 -149q0 -61 12 -104t34 -79.5t69 -100.5q31 -43 37 -51
q121 52 183 132.5t62 208.5q0 44 -22 88t-65.5 73.5t-103.5 29.5q-90 0 -148 -48zM835.5 153q43.5 10 90.5 30q-80 90 -183 224.5t-186 250.5q-95 -50 -149 -115t-54 -143q0 -69 38.5 -127t124.5 -94t222 -36q53 0 96.5 10z" />
    <glyph glyph-name="paragraph" unicode="&#xb6;" horiz-adv-x="1320" 
d="M192 890q-109 113 -109 358q0 141 65.5 245t194.5 161t314 57q72 0 261 -11q159 -8 208 -9v-1691h-184v1548h-241v-1548h-184v777q-216 0 -325 113z" />
    <glyph glyph-name="copyright" unicode="&#xa9;" horiz-adv-x="2129" 
d="M1503 1722.5q200 -117.5 316 -319t116 -440.5q0 -240 -116.5 -442t-316 -320.5t-438.5 -118.5t-438.5 118.5t-315.5 320.5t-116 442q0 239 116 440.5t315.5 319t438.5 117.5t439 -117.5zM1435.5 312q166.5 101 261.5 273.5t95 377.5t-95 377t-261.5 273t-371.5 101
t-371.5 -101t-261.5 -273t-95 -377t95 -377.5t261.5 -273.5t371.5 -101t371.5 101zM1355 1394l-32 -164q-96 63 -225 63q-89 0 -153 -42t-97 -115.5t-33 -164.5q0 -106 34.5 -181.5t96 -114.5t142.5 -39q72 0 137.5 18t109.5 43l45 -124q-50 -42 -136 -68t-183 -26
q-134 0 -234 66t-153 175.5t-53 235.5q0 142 57.5 254t169.5 176t269 64q140 0 238 -56z" />
    <glyph glyph-name="registered" unicode="&#xae;" horiz-adv-x="2129" 
d="M1503 1722.5q200 -117.5 316 -319t116 -440.5q0 -240 -116.5 -442t-316 -320.5t-438.5 -118.5t-438.5 118.5t-315.5 320.5t-116 442q0 239 116 440.5t315.5 319t438.5 117.5t439 -117.5zM1435.5 312q166.5 101 261.5 273.5t95 377.5t-95 377t-261.5 273t-371.5 101
t-371.5 -101t-261.5 -273t-95 -377t95 -377.5t261.5 -273.5t371.5 -101t371.5 101zM815 1441q33 0 61.5 1t51.5 2q92 4 145 4q122 0 202.5 -36.5t118.5 -98t38 -139.5q0 -116 -45.5 -192.5t-147.5 -107.5q37 -27 63.5 -68.5t62.5 -112.5l27 -54q17 -30 63 -99l40 -61l-204 1
q-22 29 -39 59.5t-40 78.5l-14 31q-26 59 -45.5 95t-48 65.5t-65.5 39.5q-26 -1 -124 -1v-369h-177v962h77zM1198.5 1016.5q49.5 40.5 49.5 134.5q0 81 -44.5 123t-161.5 42q-44 0 -71 -2t-56 -9v-325q40 -4 130 -4q104 0 153.5 40.5z" />
    <glyph glyph-name="section" unicode="&#xa7;" horiz-adv-x="1358" 
d="M1132 150q0 -124 -73 -201t-184 -109.5t-234 -32.5q-89 0 -172.5 14t-147.5 35t-96 44l42 166q49 -36 150 -65.5t223 -29.5q127 0 210 38t83 121q0 53 -39 94t-97.5 70.5t-160.5 72.5q-133 55 -217.5 101t-144 120t-59.5 179q0 86 37.5 165.5t101.5 143.5
q-61 51 -94.5 113.5t-33.5 142.5q0 125 69.5 201t174.5 108t221 32q128 0 221.5 -21.5t144.5 -51.5l-42 -166q-43 30 -123.5 52.5t-198.5 22.5q-115 0 -191 -37.5t-76 -115.5q0 -60 40.5 -107.5t101.5 -83t165 -85.5q132 -63 214 -113.5t139.5 -128.5t57.5 -185
q0 -78 -30 -151t-83 -136q101 -88 101 -216zM460 681.5q44 -50.5 108.5 -84t177.5 -79.5q11 -5 63 -26.5t95 -42.5q18 44 29.5 88.5t11.5 79.5q0 74 -44 129t-109 93t-177 89q-91 42 -143 70q-24 -49 -40 -101.5t-16 -93.5q0 -71 44 -121.5z" />
    <glyph glyph-name="trademark" unicode="&#x2122;" horiz-adv-x="2218" 
d="M177 1543h689v-153l-256 1v-624h-184v624l-248 -1zM2033 767h-177l-39 536l-6 126l-44 -134l-183 -535h-118l-209 535l-51 135l-3 -127l-25 -536h-170l41 776h293l144 -405l38 -141l30 141l129 405h276z" />
    <glyph glyph-name="degree" unicode="&#xb0;" horiz-adv-x="912" 
d="M627.5 1573q77.5 -44 123 -121.5t45.5 -173.5q0 -97 -45 -174t-123 -121t-172 -44q-93 0 -171 44t-123.5 121.5t-45.5 173.5q0 97 45 174t123 121t172 44t171.5 -44zM549 1108.5q42 25.5 67 70t25 99.5t-25 99.5t-67 69.5t-93 25t-93 -25t-66.5 -69.5t-24.5 -99.5
t24.5 -99.5t67 -70t92.5 -25.5q51 0 93 25.5z" />
    <glyph glyph-name="estimated" unicode="&#x212e;" horiz-adv-x="1373" 
d="M382 626v-356q112 -158 366 -158q100 0 200 31.5t165 68.5l48 -122q-63 -45 -190 -75.5t-244 -30.5q-196 0 -336 82t-213.5 236.5t-73.5 368.5q0 200 70 353t211 241t346 91q146 3 266.5 -60.5t193.5 -183.5t78 -280q0 -82 -2 -127t-9 -79h-876zM525.5 1187
q-86.5 -40 -143.5 -124v-295h627v347q-92 112 -291 112q-106 0 -192.5 -40z" />
    <glyph glyph-name="uni2113" unicode="&#x2113;" horiz-adv-x="1240" 
d="M747.5 235.5q64.5 92.5 111.5 229.5l179 -32q-28 -91 -89 -198.5t-148 -185.5t-186 -78q-96 0 -163.5 53.5t-105.5 156.5q-87 -78 -173 -149l-173 116q159 105 305 233q-5 60 -5 115q0 284 83 560.5t222 451.5t297 175q97 0 146.5 -68.5t49.5 -184.5q0 -269 -165 -551.5
t-443 -559.5q17 -92 52.5 -134t76.5 -42q64 0 128.5 92.5zM707 1365.5q-88 -156.5 -153 -386t-75 -427.5q139 150 237.5 306.5t149 302.5t50.5 268q0 31 -11.5 62t-33.5 31q-76 0 -164 -156.5z" />
    <glyph glyph-name="uni2116" unicode="&#x2116;" horiz-adv-x="2587" 
d="M2286 1454q107 -76 157 -205t50 -290q0 -176 -63 -302.5t-175.5 -192t-258.5 -65.5q-169 0 -276.5 77t-156 205.5t-48.5 290.5q0 177 63.5 302.5t177 190.5t259.5 65q164 0 271 -76zM1067 1522h204v-1522h-194l-558 924l-133 266l11 -227v-963h-203v1522h194l581 -968
l107 -230l-9 194v1004zM2208.5 657.5q68.5 103.5 68.5 295.5q0 191 -69 305.5t-204 114.5q-133 0 -203 -100t-70 -288q0 -126 31 -223t93 -152.5t153 -55.5q132 0 200.5 103.5zM1580 165h860v-165h-860v165z" />
    <glyph glyph-name="asciicircum" unicode="^" horiz-adv-x="1363" 
d="M682 1288l285 -798h211l-394 1041h-205l-394 -1041h211z" />
    <glyph glyph-name="dagger" unicode="&#x2020;" horiz-adv-x="1026" 
d="M124 1125l1 163l289 -4l-3 374h204l-3 -374l290 4v-163l-290 3l-11 -928h-176l-11 928z" />
    <glyph glyph-name="daggerdbl" unicode="&#x2021;" horiz-adv-x="1026" 
d="M124 476v163l289 -3v492l-289 -3l1 163l288 -3l-3 373h205l-4 -373l291 3v-163l-291 3v-492l290 3v-163l-290 3l-16 -835h-167l-15 835z" />
    <glyph glyph-name="minute" unicode="&#x2032;" horiz-adv-x="682" 
d="M515 1793l-162 -603h-163l94 603h231z" />
    <glyph glyph-name="second" unicode="&#x2033;" horiz-adv-x="1092" 
d="M515 1793l-162 -603h-163l94 603h231zM925 1793l-162 -603h-163l94 603h231z" />
    <glyph glyph-name="uni0326" unicode="&#x326;" horiz-adv-x="0" 
d="M-290 -493q16 19 27.5 59t11.5 86q0 41 -19 79.5t-48 44.5v50l158 92q40 -19 68.5 -76t28.5 -136q0 -65 -24 -120.5t-59 -93t-69 -52.5l-75 41v26z" />
    <glyph glyph-name="uni02C9" unicode="&#x2c9;" horiz-adv-x="647" 
d="M597 1937v-162h-547v162h547z" />
    <glyph glyph-name="acute" unicode="&#xb4;" horiz-adv-x="594" 
d="M71 1407q119 131 187.5 210.5t129.5 165.5l156 -135q-24 -40 -103 -120.5t-162 -150.5t-118 -83l-111 90z" />
    <glyph glyph-name="breve" unicode="&#x2d8;" horiz-adv-x="784" 
d="M203 1685q1 -40 10.5 -81.5t51.5 -82.5t128 -41q120 0 154.5 68.5t37.5 136.5h150q1 -10 1 -31q0 -90 -44 -169.5t-122.5 -128t-177.5 -48.5q-104 0 -182 48t-120 127.5t-42 170.5q0 21 1 31h154z" />
    <glyph glyph-name="caron" unicode="&#x2c7;" horiz-adv-x="824" 
d="M422 1459l232 222l135 -56l-268 -332h-198l-276 333l126 56z" />
    <glyph glyph-name="cedilla" unicode="&#xb8;" horiz-adv-x="485" 
d="M144 -308q53 0 87.5 36.5t39.5 113.5q5 32 5 69q0 69 -25 119l83 4l43 -4q29 -31 44 -85.5t15 -123.5q0 -16 -2 -50q-10 -119 -77.5 -177t-162.5 -58q-42 0 -86 8t-61 20l15 142q22 -14 82 -14z" />
    <glyph glyph-name="circumflex" unicode="&#x2c6;" horiz-adv-x="836" 
d="M323 1682h198l268 -332l-135 -56l-232 222l-249 -223l-126 56z" />
    <glyph glyph-name="dieresis" unicode="&#xa8;" horiz-adv-x="863" 
d="M82.5 1567.5q22.5 34.5 58.5 54.5t74 20q65 0 97.5 -36t32.5 -94q0 -43 -21.5 -77t-57 -53t-75.5 -19q-56 0 -93.5 35.5t-37.5 94.5q0 40 22.5 74.5zM540.5 1567.5q22.5 34.5 58.5 54.5t74 20q64 0 97 -36.5t33 -93.5q0 -43 -21.5 -77t-57 -53t-75.5 -19
q-56 0 -93.5 35.5t-37.5 94.5q0 40 22.5 74.5z" />
    <glyph glyph-name="dotaccent" unicode="&#x2d9;" horiz-adv-x="403" 
d="M73.5 1560q23.5 36 61.5 57t77 21q68 0 104.5 -38t36.5 -97q0 -44 -23 -80t-60 -56t-79 -20q-38 0 -70 16.5t-51.5 47.5t-19.5 71q0 42 23.5 78z" />
    <glyph glyph-name="grave" unicode="`" horiz-adv-x="595" 
d="M315 1378.5q-80 66.5 -156.5 143.5t-108.5 126l157 135q97 -125 306 -362l32 -37l-111 -90q-39 18 -119 84.5z" />
    <glyph glyph-name="hungarumlaut" unicode="&#x2dd;" horiz-adv-x="1035" 
d="M301 1798l162 -111q-30 -51 -91.5 -129t-125.5 -146t-101 -93l-103 71zM808 1789l155 -110q-25 -48 -87 -125t-128.5 -144.5t-105.5 -90.5l-101 71z" />
    <glyph glyph-name="macron" unicode="&#xaf;" horiz-adv-x="647" 
d="M597 1588v-163h-547v163h547z" />
    <glyph glyph-name="ogonek" unicode="&#x2db;" horiz-adv-x="640" 
d="M128 -132q76 80 186 130l100 10l98 -3q-61 -25 -123 -70t-102 -98t-40 -100q0 -104 129 -104q43 0 86.5 12.5t70.5 23.5t33 13l18 -119q-122 -74 -283 -74q-65 0 -122 25t-92 73t-35 114q0 87 76 167z" />
    <glyph glyph-name="ring" unicode="&#x2da;" horiz-adv-x="731" 
d="M90.5 1755q45.5 61 118 89.5t156.5 28.5q148 0 234.5 -69.5t86.5 -195.5q0 -92 -43.5 -155t-117 -94t-163.5 -31q-94 0 -166 33.5t-111.5 95.5t-39.5 144q0 93 45.5 154zM483.5 1711q-48.5 38 -123.5 38q-67 0 -113 -34t-46 -108q0 -68 45 -110.5t120 -42.5
q77 0 121.5 37t44.5 114q0 68 -48.5 106z" />
    <glyph glyph-name="tilde" unicode="&#x2dc;" horiz-adv-x="927" 
d="M111 1549.5q41 44.5 94.5 71.5t111.5 27q59 0 98.5 -20.5t84.5 -59.5q34 -29 57.5 -43t54.5 -14q60 0 100.5 26t82.5 72l86 -72q-41 -85 -112 -139t-158 -54q-64 0 -103.5 21.5t-83.5 60.5q-33 29 -55.5 42.5t-53.5 13.5q-54 0 -98.5 -27.5t-84.5 -69.5l-85 68
q23 52 64 96.5z" />
    <glyph glyph-name="acute.cap" horiz-adv-x="597" 
d="M256 1843.5q142 128.5 145 136.5l146 -133q-74 -76 -194 -160.5t-202 -113.5l-93 92q56 50 198 178.5z" />
    <glyph glyph-name="breve.cap" horiz-adv-x="781" 
d="M202 1970q1 -33 10.5 -66.5t51.5 -66t127 -32.5q121 0 156 55t37 110h149q1 -10 1 -30q0 -84 -43 -154.5t-121 -112t-179 -41.5q-106 0 -183.5 41t-118.5 111.5t-41 155.5q0 20 1 30h153z" />
    <glyph glyph-name="caron.cap" horiz-adv-x="759" 
d="M176 1990l216 -174l221 174l120 -57l-242 -263h-197l-246 260z" />
    <glyph glyph-name="circumflex.cap" horiz-adv-x="815" 
d="M307 1990h197l262 -298l-144 -60l-216 202l-221 -202l-137 57z" />
    <glyph glyph-name="dieresis.cap" horiz-adv-x="893" 
d="M72.5 1878.5q22.5 35.5 59.5 56t77 20.5q68 0 103 -37.5t35 -96.5q0 -45 -22 -80t-59 -54.5t-79 -19.5q-57 0 -97 36.5t-40 96.5q0 43 22.5 78.5zM569 1878.5q23 35.5 60 56t76 20.5q68 0 103 -37.5t35 -96.5q0 -45 -22 -80t-59 -54.5t-79 -19.5q-57 0 -97 36.5t-40 96.5
q0 43 23 78.5z" />
    <glyph glyph-name="dotaccent.cap" horiz-adv-x="403" 
d="M75 1879.5q23 35.5 60.5 56t76.5 20.5q68 0 103.5 -37t35.5 -96q0 -45 -22.5 -80t-59 -54.5t-78.5 -19.5q-58 0 -98.5 36.5t-40.5 96.5q0 42 23 77.5z" />
    <glyph glyph-name="grave.cap" horiz-adv-x="597" 
d="M320 1639q-80 49 -156.5 107.5t-113.5 100.5l146 133q3 -8 145 -136.5t198 -178.5l-92 -92q-47 17 -127 66z" />
    <glyph glyph-name="hungarumlaut.cap" horiz-adv-x="962" 
d="M161 1853.5q99 137.5 102 146.5l172 -87q-66 -91 -134.5 -165t-120.5 -107l-124 69q6 6 105 143.5zM633.5 1850q102.5 134 106.5 142l163 -88q-56 -81 -127 -155.5t-127 -107.5l-125 69q7 6 109.5 140z" />
    <glyph glyph-name="macron.cap" horiz-adv-x="647" 
d="M597 1891v-162h-547v162h547z" />
    <glyph glyph-name="ring.cap" horiz-adv-x="731" 
d="M90 1855q45 60 118 87.5t157 27.5q148 0 234.5 -68t86.5 -193q0 -92 -43.5 -153.5t-117 -91t-163.5 -29.5q-95 0 -166.5 32.5t-111 93t-39.5 141.5q0 93 45 153zM483.5 1810q-48.5 36 -124.5 36q-68 0 -113 -32t-45 -106q0 -68 45 -107.5t121 -39.5q77 0 121 34.5
t44 110.5q0 68 -48.5 104z" />
    <glyph glyph-name="tilde.cap" horiz-adv-x="927" 
d="M116 1871q46 45 103 70t110 25q58 0 96 -21t83 -60q35 -30 58.5 -44t53.5 -14q49 0 92 28t83 71l86 -71q-23 -55 -69 -99.5t-102.5 -69.5t-109.5 -25q-58 0 -96.5 21.5t-82.5 61.5q-34 31 -58.5 46t-55.5 15q-82 0 -175 -102l-85 68q23 55 69 100z" />
    <glyph glyph-name="caronvertical" horiz-adv-x="339" 
d="M57 1096l12 41q18 57 27 107.5t9 138.5q0 56 -17.5 116.5t-37.5 85.5l14 47l176 55q31 -28 46.5 -92.5t15.5 -148.5q0 -125 -37 -237t-90 -175l-110 34z" />
    <glyph glyph-name="ffi_dflt" horiz-adv-x="2228" 
d="M413 1138v-1138h-220v1138h220zM174.5 1560q23.5 36 61.5 57t77 21q68 0 104.5 -38t36.5 -97q0 -44 -23 -80t-60 -56t-79 -20q-38 0 -70 16.5t-51.5 47.5t-19.5 71q0 42 23.5 78zM681 974v122l173 44v99q0 160 61.5 259t155.5 141.5t196 42.5q42 0 82 -7t60 -15v-174
q-32 11 -69.5 15.5t-102.5 4.5q-74 0 -118.5 -56t-44.5 -161v-149h282v-166h-282v-974h-220v974h-173zM1492 974v122l173 44v99q0 160 61.5 259t155.5 141.5t196 42.5q42 0 82 -7t60 -15v-174q-32 11 -69.5 15.5t-102.5 4.5q-74 0 -118.5 -56t-44.5 -161v-149h282v-166h-282
v-974h-220v974h-173z" />
    <glyph glyph-name="Gtilde" horiz-adv-x="1433" 
d="M1317 761v-667q-20 -1 -42.5 -8t-59.5 -22q-93 -36 -184 -58t-227 -22q-220 0 -379 99t-242.5 273.5t-83.5 396.5q0 253 92.5 430t252 266t360.5 89q115 0 184 -10t151 -30q58 -14 91 -20l-10 -200q-83 43 -179 64.5t-251 21.5q-133 0 -237.5 -70t-163.5 -202t-59 -312
q0 -181 52 -322t158 -222.5t261 -81.5q89 0 174.5 14.5t126.5 42.5v377l-277 13v160h492zM460 1871q46 45 103 70t110 25q58 0 96 -21t83 -60q35 -30 58.5 -44t53.5 -14q49 0 92 28t83 71l86 -71q-23 -55 -69 -99.5t-102.5 -69.5t-109.5 -25q-58 0 -96.5 21.5t-82.5 61.5
q-34 31 -58.5 46t-55.5 15q-82 0 -175 -102l-85 68q23 55 69 100z" />
    <glyph glyph-name="gtilde" 
d="M1187 973h-209q51 -86 51 -198q0 -123 -60 -211.5t-164 -134t-235 -45.5q-68 0 -124 13q-28 -19 -46 -50t-18 -64q0 -63 28.5 -86.5t101.5 -23.5h207q237 0 328.5 -88.5t91.5 -229.5q0 -111 -74 -195.5t-199.5 -130.5t-277.5 -46q-225 0 -351.5 84t-126.5 252
q0 78 47 138t112 96q-88 51 -88 165q0 58 37.5 119.5t102.5 105.5q-92 49 -144.5 132t-52.5 187q0 131 60 219.5t164.5 131.5t238.5 43q163 0 276 -69q38 26 96 43.5t117 17.5h111v-175zM750.5 584q59.5 53 59.5 183q0 118 -56 179t-169 61q-110 0 -176 -51.5t-66 -183.5
q0 -105 57.5 -173t174.5 -68q116 0 175.5 53zM397 7q-34 -30 -53.5 -67t-19.5 -95q0 -107 63.5 -159t205.5 -52q91 0 167.5 20t122.5 59t46 94q0 66 -23.5 107.5t-85 63.5t-173.5 22h-102q-91 0 -148 7zM242 1549.5q41 44.5 94.5 71.5t111.5 27q59 0 98.5 -20.5t84.5 -59.5
q34 -29 57.5 -43t54.5 -14q60 0 100.5 26t82.5 72l86 -72q-41 -85 -112 -139t-158 -54q-64 0 -103.5 21.5t-83.5 60.5q-33 29 -55.5 42.5t-53.5 13.5q-54 0 -98.5 -27.5t-84.5 -69.5l-85 68q23 52 64 96.5z" />
  </font>
</defs>
</svg>
